Loading...
Error

Хоббит: Пустошь Смауга / The Hobbit: The Desolation of Smaug (Питер Джексон) [2013 г., фэнтези, приключения, BDRip] Dub (Rus,Ukr) + Original + Sub (Rus,Ukr,Eng) HQ Underverse

Статистика раздачи
Размер:  2,91 GB   |    Зарегистрирован:  2 года 8 месяцев   |    Скачан:  61 раз
Сидов:  1  |  0 KB/s  ]   Личеров:  0  |  0 KB/s  ]

* - сиды/пиры с внешних источников

   
 
Автор Сообщение

HQ Underverse 

01-Апр-2014 09:10

Хоббит: Пустошь Смауга / The Hobbit: The Desolation of Smaug


Год выпуска: 2013
Жанр: фэнтези, приключения
Страна: США , Новая Зеландия
Режиссер: Питер Джексон
В ролях: Мартин Фриман, Ричард Армитедж, Иэн МакКеллен, Эванджелин Лилли, Орландо Блум, Люк Эванс, Бенедикт Камбербэтч, Ли Пейс, Кен Стотт, Эйдан Тернер
Сюжет фильма:
Продолжение путешествия хоббита Бильбо Бэггинса, волшебника Гэндальфа и 13 отважных гномов. Их компания обязана завершить своё путешествие к Одинокой горе. Там они должны встретиться с величайшей опасностью из всех — созданием куда более ужасающим, чем все их прошлые противники, которое проверит на прочность не только их мужество, но крепость их дружбы и правильность выбранного пути, — драконом Смаугом.

  • Мировая премьера: 2 декабря 2013
  • Российская премьера: 18 декабря 2013, «Каро-Премьер» 3D

|
Качество видео: BDRip

Продолжительность: 02:41:17
Формат: avi
Видео: XviD, 720x304, 2122 kbps
Аудио #1: русский, дублированный [лицензия], AC3 5.1, 448 kbps
Аудио #2: английский, оригинал, AC3 5.1, 448 kbps (отдельным файлом: здесь)
Аудио #3: украинский, дублированный [лицензия], AC3 5.1, 448 kbps (отдельным файлом: здесь)
Субтитры #1: внешние, SRT, русский
Субтитры #2: внешние, SRT, украинский
Субтитры #3: внешние, SRT, английский
Субтитры #4: внешние, SRT, русский (FORCED)
Субтитры #5: внешние, SRT, украинский (FORCED)

Код:

General
Complete name                    : Z:\windoza-share\Хоббит Пустошь Смауга\The.Hobbit.Desolation.Of.Smaug.2013.BDRip.XviD.AC3.Rus.D.HQ.Underverse.avi
Format                           : AVI
Format/Info                      : Audio Video Interleave
Format profile                   : OpenDML
File size                        : 2.91 GiB
Duration                         : 2h 41mn
Overall bit rate                 : 2 581 Kbps
Writing application              : VirtualDubMod 1.5.10.2 (build 2540/release)
Writing library                  : VirtualDubMod build 2540/release

Video
ID                               : 0
Format                           : MPEG-4 Visual
Format profile                   : Streaming Video@L1
Format settings, BVOP            : Yes
Format settings, QPel            : No
Format settings, GMC             : No warppoints
Format settings, Matrix          : Custom
Muxing mode                      : Packed bitstream
Codec ID                         : XVID
Codec ID/Hint                    : XviD
Duration                         : 2h 41mn
Bit rate                         : 2 122 Kbps
Width                            : 720 pixels
Height                           : 304 pixels
Display aspect ratio             : 2.35
Frame rate                       : 23.976 fps
Resolution                       : 24 bits
Colorimetry                      : 4:2:0
Scan type                        : Progressive
Bits/(Pixel*Frame)               : 0.404
Stream size                      : 2.39 GiB (82%)
Writing library                  : XviD 64

Audio
ID                               : 1
Format                           : AC-3
Format/Info                      : Audio Coding 3
Codec ID                         : 2000
Duration                         : 2h 41mn
Bit rate mode                    : Constant
Bit rate                         : 448 Kbps
Channel(s)                       : 6 channels
Channel positions                : Front: L C R, Surround: L R, LFE
Sampling rate                    : 48.0 KHz
Stream size                      : 517 MiB (17%)
Alignment                        : Split accross interleaves
Interleave, duration             : 42 ms (1.00 video frame)
Interleave, preload duration     : 500 ms

General
Complete name                    : Z:\windoza-share\Хоббит Пустошь Смауга\The.Hobbit.Desolation.Of.Smaug.2013.BDRip.XviD.AC3.Rus.D.HQ.Underverse.avi.UKR.ac3
Format                           : AC-3
Format/Info                      : Audio Coding 3
File size                        : 517 MiB
Duration                         : 2h 41mn
Overall bit rate                 : 448 Kbps

Audio
Format                           : AC-3
Format/Info                      : Audio Coding 3
Duration                         : 2h 41mn
Bit rate mode                    : Constant
Bit rate                         : 448 Kbps
Channel(s)                       : 6 channels
Channel positions                : Front: L C R, Surround: L R, LFE
Sampling rate                    : 48.0 KHz
Stream size                      : 517 MiB (100%)

General
Complete name                    : Z:\windoza-share\Хоббит Пустошь Смауга\The.Hobbit.Desolation.Of.Smaug.2013.BDRip.XviD.AC3.Rus.D.HQ.Underverse.avi.ENG.ac3
Format                           : AC-3
Format/Info                      : Audio Coding 3
File size                        : 517 MiB
Duration                         : 2h 41mn
Overall bit rate                 : 448 Kbps

Audio
Format                           : AC-3
Format/Info                      : Audio Coding 3
Duration                         : 2h 41mn
Bit rate mode                    : Constant
Bit rate                         : 448 Kbps
Channel(s)                       : 6 channels
Channel positions                : Front: L C R, Surround: L R, LFE
Sampling rate                    : 48.0 KHz
Stream size                      : 517 MiB (100%)

Релиз группы:

picpicpic
Для увеличения картинки щелкните мышкой по превью

Этот торрент недоступен для скачивания без регистрации, однако доступен по публичной magnet-ссылке (источники с публичных трекеров). Перед использованием ссылки прочтите, пожалуйста Пользовательское соглашение, а также как можно дольше оставайтесь на раздаче! Для того, чтобы скачать сам торрент-файл (который видит больше источников), а также для того, чтобы поблагодарить релизера, вам необходимо зарегистрироваться. Если регистрироваться лень - вы можете также попробовать скачать релиз по нашим партнерским ссылкам ниже.

[underverse.su].t37751.torrent
Трекер: Зарегистрирован   [ 01.04.2014 09:10 ]  

Статус: проверено (by HQ Underverse at 01.04.2014 09:10)
Поблагодарили: 5 человек
Тип торрента: публичный - доступные источники с открытых трекеров: 
Размер: 2,91 GB (занимает 2/3 DVDR, для записи нужно 1 болванка DVDR/RW)
 
 
Похожие темы
Форум Тема Автор Торрент Отв. Посл. сооб.
Зарубежное кино [DVDRip, Low-Res HDRip, и т.д.] Хоббит: Пустошь Смауга / The Hobbit: The Desolation of Smaug (Питер Джексон / Peter Jackson) [2013 г., фэнтези, приключения, экранизация, HDRip] Dub + Sub (Rus) 90ytr90
1 | 0

0 | 2294

61

24.03.2014 18:45

Зарубежное кино [DVDRip, Low-Res HDRip, и т.д.] Хоббит: Пустошь Смауга / The Hobbit: The Desolation of Smaug (Питер Джексон / Peter Jackson) [2013 г., фэнтези, приключения, экранизация, HDRip] Dub + Sub (Rus) 90ytr90
1 | 0

0 | 2378

102

26.03.2014 17:00

Зарубежное кино [DVDRip, Low-Res HDRip, и т.д.] Хоббит: Пустошь Смауга / The Hobbit: The Desolation of Smaug (Питер Джексон / Peter Jackson) [2013 г., фэнтези, приключения, HDRip-AVC] Dub + Ukr + Original (Eng) + Subs 90ytr90
0 | 0

1 | 2058

40

04.04.2014 15:47

# Зарубежное кино [DVDRip, Low-Res HDRip, и т.д.] Хоббит: Пустошь Смауга / The Hobbit: The Desolation of Smaug (Питер Джексон / Peter Jackson) [2013 г., фэнтези, приключения, экранизация, HDRip] [Extended Cut] Dub + hardsub (Rus) 90ytr90
9 | 0

0 | 444

4

26.11.2014 15:37

Зарубежное кино [DVDRip, Low-Res HDRip, и т.д.] Хоббит: Пустошь Смауга / The Hobbit: The Desolation of Smaug (Питер Джексон / Peter Jackson) [2013 г., фэнтези, приключения, экранизация, BDRip-AVC] [Extended Cut] Dub + Original (Eng) + Subs 90ytr90
26 | 0

0 | 610

25

26.11.2014 15:52

# Зарубежное кино [DVDRip, Low-Res HDRip, и т.д.] Хоббит: Пустошь Смауга / The Hobbit: The Desolation of Smaug (Питер Джексон / Peter Jackson) [2013 г., фэнтези, приключения, экранизация, BDRip] [Extended Cut] Dub + hardsub (Rus) 90ytr90
1 | 0

0 | 428

9

26.11.2014 16:19

# Зарубежное кино [DVDRip, Low-Res HDRip, и т.д.] Хоббит: Пустошь Смауга / The Hobbit: The Desolation of Smaug (Питер Джексон / Peter Jackson) [2013 г., фэнтези, приключения, экранизация, BDRip] Dub + hardsub (Rus) 90ytr90
6 | 0

0 | 565

23

26.11.2014 16:28

Зарубежное кино [DVD / HDDVD / BD / Remux] Хоббит: Пустошь Смауга / The Hobbit: The Desolation of Smaug (Питер Джексон) [2013 г., Фэнтези, приключения, DVD-9] Dub [лицензия] + Sub (Eng) + Original (Eng) vasilich619
0 | 0

2 | 710

12

15.04.2014 19:32

Зарубежное кино [DVD / HDDVD / BD / Remux] Хоббит: Пустошь Смауга / The Hobbit: The Desolation of Smaug (Питер Джексон / Peter Jackson) [2013, США, Новая Зеландия, фэнтези, приключения, BDRemux 1080p] Dub + AVO (Сербин) + Sub (Rus, Ukr, Eng)... uzi2009
0 | 0

0 | 1222

7

04.08.2014 11:04

Зарубежное кино [HDDVDRip / BDRip / WEB-DL / HDTV 1080/720р] Хоббит: Пустошь Смауга / The Hobbit: The Desolation of Smaug (Питер Джексон / Peter Jackson) [2013 г., фэнтези, приключения, BDRip 720p] Dub + Ukr + Original (Eng) + Subs 90ytr90
2 | 0

0 | 1646

46

26.03.2014 16:39


Яндекс.Метрика powered by Sphinx


В Н И М А Н И Е
Сайт не распространяет и не хранит электронные версии произведений, а лишь бесплатно и без коммерческой выгоды (не требуя взамен платы,
SMS и т.д.) предоставляет доступ к создаваемому пользователями каталогу ссылок на торрент-файлы, которые содержат только списки хеш-сумм.
Убедительная просьба с жалобами обращаться напрямую к пользователю, разместившему торрент файл.

Вверх