Loading...
Error

Под прицелом (1-16 серии из 16) (Виктор Конисевич) [2014 г., Остросюжетный фильм, детектив, криминал, SatRip]

Статистика раздачи
Размер:  9,81 GB   |    Зарегистрирован:  2 года 8 месяцев   |    Скачан:  14 раз

Полного источника не было: 1 год 11 месяцев

Сидов:  0  |  0 KB/s  ]   Личеров:  0  |  0 KB/s  ]

* - сиды/пиры с внешних источников

   
 
Автор Сообщение

nemos Пол:Муж

25-Мар-2014 20:42

Под прицелом


Год выпуска: 2014
Жанр: Остросюжетный фильм, детектив, криминал
Страна: Россия
Режиссер: Виктор Конисевич
В ролях: Нина Гогаева, Роман Курцын, Андрей Харитонов, Сергей Жарков, Дмитрий Бакунин, Владимир Гусев, Валерий Новиков, Игорь Головин, Игорь Савочкин
Сюжет фильма:
Руководство одного из столичных отделений полиции решило провести эксперимент – в целях улучшения качества работы сотрудников во время службы будут снимать камеры наблюдения. Они, конечно, не в восторге, но вынуждены подчиниться распоряжению начальства. Теперь полицейским нужно научиться расследовать преступления и работать с нарушителями очень осторожно… У каждого сотрудника своя история и проблемы. Старший следователь, майор Афродита Морозова, и старший оперуполномоченный, подполковник Антон Раевский, явно симпатизируют друг другу. Но у женщины сложные отношения с мужем, а Раевский хочет уйти на пенсию, так как не видит для себя перспектив. Не все благополучно и у их коллег. Старший следователь Юлия Хорькова содержит мужа-художника и никак не может забеременеть. Участковый Павел Карасев потерял год назад в автокатастрофе жену и сына, и это часто заставляет его задумываться о самоубийстве. А девушка старшего оперуполномоченного — капитана Олега Павлова, известная в Москве певица, недовольна тем, что тот мало зарабатывает. Похоже, что все хорошо только у старшего участкового Николая Сливина: у него и жена, и любовница, и взятки… Каково им будет жить на виду?


Качество видео: SatRip

Продолжительность: 00:43:39 серия
Формат: AVI
Видео: XviD, 720х448, 1 795 kbps
Аудио: русский, MP3 2.0, 128 kbps

Код:

D:\Фильмы (роздача)\Pod.pricelom.2014.SATRip\Pod.pricelom.01.2013.SATRip.KZ.avi
   General
      Complete name : D:\Фильмы (роздача)\Pod.pricelom.2014.SATRip\Pod.pricelom.01.2013.SATRip.KZ.avi
      Format : AVI
      Format/Info : Audio Video Interleave
      File size : 604 MiB
      Duration : 43mn 39s
      Overall bit rate : 1 933 Kbps
      Writing application : VirtualDubMod 1.5.10.3 | www.virtualdub-fr.org || (build 2550/release)
      Writing library : VirtualDub build 32507/release
   Video #0
      ID : 0
      Format : MPEG-4 Visual
      Format profile : Advanced Simple@L5
      Format settings, BVOP : 2
      Format settings, QPel : No
      Format settings, GMC : No warppoints
      Format settings, Matrix : Default (MPEG)
      Codec ID : XVID
      Codec ID/Hint : XviD
      Duration : 43mn 39s
      Bit rate : 1 795 Kbps
      Width : 720 pixels
      Height : 448 pixels
      Display aspect ratio : 1.607
      Frame rate : 25.000 fps
      Color space : YUV
      Chroma subsampling : 4:2:0
      Bit depth : 8 bits
      Scan type : Progressive
      Compression mode : Lossy
      Bits/(Pixel*Frame) : 0.223
      Stream size : 561 MiB (93%)
      Writing library : XviD 1.2.1 (UTC 2008-12-04)
   Audio #1
      ID : 1
      Format : MPEG Audio
      Format version : Version 1
      Format profile : Layer 3
      Mode : Joint stereo
      Codec ID : 55
      Codec ID/Hint : MP3
      Duration : 43mn 39s
      Bit rate mode : Constant
      Bit rate : 128 Kbps
      Channel(s) : 2 channels
      Sampling rate : 48.0 KHz
      Compression mode : Lossy
      Stream size : 40.0 MiB (7%)
      Alignment : Aligned on interleaves
      Interleave, duration : 40 ms (1.00 video frame)
      Interleave, preload duration : 504 ms
      Writing library : LAME3.99r
      Encoding settings : -m j -V 4 -q 2 -lowpass 17 -b 128
picpicpicpicpicpicpicpicpicpicpicpicpicpicpicpicpicpicpic
Для увеличения картинки щелкните мышкой по превью

Этот торрент недоступен для скачивания без регистрации, однако доступен по публичной magnet-ссылке (источники с публичных трекеров). Перед использованием ссылки прочтите, пожалуйста Пользовательское соглашение, а также как можно дольше оставайтесь на раздаче! Для того, чтобы скачать сам торрент-файл (который видит больше источников), а также для того, чтобы поблагодарить релизера, вам необходимо зарегистрироваться. Если регистрироваться лень - вы можете также попробовать скачать релиз по нашим партнерским ссылкам ниже.

[underverse.su].t37891.torrent
Трекер: Зарегистрирован   [ 03.04.2014 18:53 ]  

Статус: проверено (by 90ytr90 at 03.04.2014 19:12)
Поблагодарили: 2 человека
Тип торрента: публичный - доступные источники с открытых трекеров: 
Размер: 9,81 GB (занимает 2,24 DVDR, для записи нужно 3 болванки DVDR/RW)
 
 
Похожие темы
Форум Тема Автор Торрент Отв. Посл. сооб.
Зарубежное кино [DVDRip, Low-Res HDRip, и т.д.] Под прицелом / Pressed (Джастин Доннелли) [2011 г., триллер, криминал, HDRip] MVO 90ytr90
3 | 1

0 | 1144

15

11.01.2013 20:49

Зарубежное кино [DVDRip, Low-Res HDRip, и т.д.] Под прицелом / Стальной кулак / Under the Gun (Мэттью Джордж) [1995 г., боевик, DVDRip] AVO + Original Паукан
1 | 1

0 | 1505

4

26.06.2013 21:38

Наше кино [DVDRip, Low-Res HDRip, и т.д.] Под прицелом любви (Дмитрий Лактионов) [2012 г., Детектив, Мелодрама, SATRip] 90ytr90
0 | 0

0 | 885

13

10.12.2012 14:12

Другие фильмы Под прицелом мозг: психотронное оружие (Галина Царева) [2013 г., документальный, SATRip] 90ytr90
0 | 0

0 | 1523

16

19.01.2013 08:08



Последний раз редактировалось: nemos (06.11.2014 09:13), всего редактировалось 6 раз(а)

nemos Пол:Муж

27-Мар-2014 08:35

Внимание! Данная раздача обновлена до 16-ой серии.

Яндекс.Метрика powered by Sphinx


В Н И М А Н И Е
Сайт не распространяет и не хранит электронные версии произведений, а лишь бесплатно и без коммерческой выгоды (не требуя взамен платы,
SMS и т.д.) предоставляет доступ к создаваемому пользователями каталогу ссылок на торрент-файлы, которые содержат только списки хеш-сумм.
Убедительная просьба с жалобами обращаться напрямую к пользователю, разместившему торрент файл.

Вверх