Loading...
Error

Кухня (3 сезон: 1-20 серии из 20) (Дмитрий Дьяченко (II)) [2014 г., Комедия, WEB-DLRip-AVC]

Статистика раздачи
Размер:  9,69 GB   |    Зарегистрирован:  2 года 8 месяцев   |    Скачан:  42 раза

Полного источника не было: 1 день 10 часов

Сидов:  0  |  0 KB/s  ]   Личеров:  0  |  0 KB/s  ]

* - сиды/пиры с внешних источников

   
 
Автор Сообщение

nemos Пол:Муж

25-Мар-2014 17:25


Год выпуска: 2014
Жанр: Комедия
Страна: Россия
Режиссер: Дмитрий Дьяченко (II)
В ролях: Дмитрий Назаров, Дмитрий Нагиев, Елена Подкаминская, Марина Могилевская, Марк Богатырёв, Виктор Хориняк, Ольга Кузьмина, Екатерина Кузнецова, Валерия Федорович, Жанныл Асанбекова, Елена Чернявская, Алексей Колган, Сергей Лавыгин, Сергей Епишев, Михаил Тарабукин, Никита Тарасов, Юлия Такшина, Виктория Лукина, Виталий Щанников, Сергей Беляев, Роман Индык, Евгения Храповицкая, Ольга Новосад, Серафима Низовская, Александр Карпиловский, Мария Горбань, Ирина Бразговка
Качество видео: WEB-DLRip-AVC

Продолжительность: 00:26:49 серия
Формат: MKV
Видео: MPEG-4 AVC, 1024x576, 2 341 kbps
Аудио: русский, AC3 2.0, 192 kbps

Главный герой Максим Лавров — выпускник Воронежского кулинарного колледжа — одержим мечтой: стать знаменитым шеф-поваром. Для этого он отправляется в Москву, чтобы устроиться в известнейший и популярный ресторан «Клод Моне», хозяином которого является «звезда» шоу-бизнеса. Шеф-повар ресторана «Клод Моне» — знаменитый на всю Москву Виктор Баринов. Властный, харизматичный, самодур, пьяница и игрок, но повар от бога. Арт-директор ресторана — Виктория Гончарова. Ей 30, она хитра, образованна, красива. Вся её жизнь — карьера, в ней нет места личной жизни. Сотрудники ресторана работают в условиях вечного конфликта Шеф-повара и Арт-директора. Один ставит во главу угла прекрасно приготовленную на его кухне еду. Другая — сервис и атмосферу зала ресторана, которую создает она. Именно в это заведение и попадает Максим. Парень знает себе цену и всеми способами пытается завоевать доверие шеф-повара и остаться на кухне. Однако отсутствие опыта и чрезмерное желание самоутвердиться ввергают Максима в череду коллизий, которую ему придётся преодолеть, чтобы стать частью этого мира.

Код:

D:\Фильмы (роздача)\Kuhnya-3.2014.WEB-DLRip.(AVC).MediaClub\Kuhnya-3.(01.seriya).2014.WEB-DLRip.(AVC).MediaClub.mkv
   General
      Unique ID : 216916668785085882087965082213920263870 (0xA330A17B20118EB194637E20CEFFCEBE)
      Complete name : D:\Фильмы (роздача)\Kuhnya-3.2014.WEB-DLRip.(AVC).MediaClub\Kuhnya-3.(01.seriya).2014.WEB-DLRip.(AVC).MediaClub.mkv
      Format : Matroska
      Format version : Version 4 / Version 2
      File size : 496 MiB
      Duration : 26mn 49s
      Overall bit rate : 2 584 Kbps
      Encoded date : UTC 2014-03-16 18:04:28
      Writing application : mkvmerge v6.3.0 ('You can't stop me!') built on Jun 28 2013 20:09:41
      Writing library : libebml v1.3.0 + libmatroska v1.4.0
   Video #1
      ID : 1
      Format : AVC
      Format/Info : Advanced Video Codec
      Format profile : High@L4.1
      Format settings, CABAC : Yes
      Format settings, ReFrames : 9 frames
      Codec ID : V_MPEG4/ISO/AVC
      Duration : 26mn 49s
      Bit rate : 2 341 Kbps
      Width : 1 024 pixels
      Height : 576 pixels
      Display aspect ratio : 16:9
      Frame rate mode : Constant
      Frame rate : 25.000 fps
      Color space : YUV
      Chroma subsampling : 4:2:0
      Bit depth : 8 bits
      Scan type : Progressive
      Bits/(Pixel*Frame) : 0.159
      Stream size : 449 MiB (91%)
      Default : Yes
      Forced : No
   Audio #2
      ID : 2
      Format : AC-3
      Format/Info : Audio Coding 3
      Mode extension : CM (complete main)
      Format settings, Endianness : Big
      Codec ID : A_AC3
      Duration : 26mn 49s
      Bit rate mode : Constant
      Bit rate : 192 Kbps
      Channel(s) : 2 channels
      Channel positions : Front: L R
      Sampling rate : 48.0 KHz
      Bit depth : 16 bits
      Compression mode : Lossy
      Delay relative to video : 24ms
      Stream size : 36.8 MiB (7%)
      Default : Yes
      Forced : No
picpicpicpicpicpicpicpicpic
Для увеличения картинки щелкните мышкой по превью

Этот торрент недоступен для скачивания без регистрации, однако доступен по публичной magnet-ссылке (источники с публичных трекеров). Перед использованием ссылки прочтите, пожалуйста Пользовательское соглашение, а также как можно дольше оставайтесь на раздаче! Для того, чтобы скачать сам торрент-файл (который видит больше источников), а также для того, чтобы поблагодарить релизера, вам необходимо зарегистрироваться. Если регистрироваться лень - вы можете также попробовать скачать релиз по нашим партнерским ссылкам ниже.

[underverse.su].t37924.torrent
Трекер: Зарегистрирован   [ 04.04.2014 12:07 ]  

Статус: проверено (by 90ytr90 at 04.04.2014 17:43)
Поблагодарили: 4 человека
Тип торрента: публичный - доступные источники с открытых трекеров: 
Размер: 9,69 GB (занимает 2,21 DVDR, для записи нужно 3 болванки DVDR/RW)
 
 
Похожие темы
Форум Тема Автор Торрент Отв. Посл. сооб.
xUSSR сериалы Кухня (3 сезон /серии 1-20 серии из 20) (Дмитрий Дьяченко) [2014 г., комедия, SatRip] UseR
0 | 0

1 | 2949

8

09.04.2014 03:09



Последний раз редактировалось: nemos (06.11.2014 09:14), всего редактировалось 8 раз(а)

nemos Пол:Муж

26-Мар-2014 16:06

Внимание! Данная раздача обновлена 20-ать серий.

Яндекс.Метрика powered by Sphinx


В Н И М А Н И Е
Сайт не распространяет и не хранит электронные версии произведений, а лишь бесплатно и без коммерческой выгоды (не требуя взамен платы,
SMS и т.д.) предоставляет доступ к создаваемому пользователями каталогу ссылок на торрент-файлы, которые содержат только списки хеш-сумм.
Убедительная просьба с жалобами обращаться напрямую к пользователю, разместившему торрент файл.

Вверх