Loading...
Error

Дикий 4 (1-32 серии из 32) (Артем Мазунов) [2014 г., Боевик, Криминал, SatRip]

Статистика раздачи
Размер:  19,16 GB   |    Зарегистрирован:  2 года 7 месяцев   |    Скачан:  11 раз

Полного источника не было: 3 месяца 15 дней

Сидов:  0  |  0 KB/s  ]   Личеров:  0  |  0 KB/s  ]

* - сиды/пиры с внешних источников

   
 
Автор Сообщение

nemos Пол:Муж

24-Мар-2014 13:58



Год выпуска: 2014
Жанр: Боевик, Криминал
Страна: Россия
Режиссер: Артем Мазунов
В ролях: Игорь Лифанов, Артем Мазунов, Мария Баева, Галина Анисимова, Станислав Бондаренко, Сергей Баталов, Константин Адаев, Юлия Галкина, Александр Пашков, Александра Прокофьева
Качество видео: SatRip

Продолжительность: 00:44:10 серия
Формат: AVI
Видео: XviD, 720x448, 1794 kbps
Аудио: русский, MP3 2.0, 128 kbps


На НТВ — новые серии одного из самых популярных и захватывающих сериалов — «Дикий»! Что ждет поклонников отчаянного и неудержимого героя Игоря Лифанова – оперуполномоченного Александра Диченко? В конце прошлого сезона погибла любимая девушка Таня, с которой у Дикого так все замечательно складывалось. Он — в отчаянии и депрессии, ведь кошмар прошлого — гибель жены — повторился. Дикий уверен: причина всех бед кроется в нем самом. Он как «черная метка», приносящая всем вокруг несчастья… Не удается избежать и проблем на работе: Диченко никак не может найти внутреннюю мотивацию стать прежним. Хандра продолжается до тех пор, пока ему не поступает неожиданное и чрезвычайно опасное предложение из Вышнегорска — войти в специально отобранную команду под руководством полковника Зайцева. Дикий срывается с места и едет в Вышнегорск, а следом за ним, естественно, устремляется и его верный друг и напарник Кочкин. Их новая команда должна стать тем самым «кулаком», который нанесет сокрушительный удар по вышнегорской мафии…

Код:

D:\Фильмы (роздача)\Дикий-4 (2014)\Дикий-4 (серия 01).avi
   General
      Complete name : D:\Фильмы (роздача)\Дикий-4 (2014)\Дикий-4 (серия 01).avi
      Format : AVI
      Format/Info : Audio Video Interleave
      File size : 611 MiB
      Duration : 44mn 10s
      Overall bit rate : 1 932 Kbps
      Writing application : VirtualDubMod 1.5.10.2 (build 2540/release)
      Writing library : VirtualDub build 32507/release
   Video #0
      ID : 0
      Format : MPEG-4 Visual
      Format profile : Advanced Simple@L5
      Format settings, BVOP : 2
      Format settings, QPel : No
      Format settings, GMC : No warppoints
      Format settings, Matrix : Default (MPEG)
      Codec ID : XVID
      Codec ID/Hint : XviD
      Duration : 44mn 10s
      Bit rate : 1 794 Kbps
      Width : 720 pixels
      Height : 448 pixels
      Display aspect ratio : 1.607
      Frame rate : 25.000 fps
      Color space : YUV
      Chroma subsampling : 4:2:0
      Bit depth : 8 bits
      Scan type : Progressive
      Compression mode : Lossy
      Bits/(Pixel*Frame) : 0.223
      Stream size : 567 MiB (93%)
      Writing library : XviD 64
   Audio #1
      ID : 1
      Format : MPEG Audio
      Format version : Version 1
      Format profile : Layer 3
      Mode : Joint stereo
      Codec ID : 55
      Codec ID/Hint : MP3
      Duration : 44mn 10s
      Bit rate mode : Constant
      Bit rate : 128 Kbps
      Channel(s) : 2 channels
      Sampling rate : 48.0 KHz
      Compression mode : Lossy
      Stream size : 40.4 MiB (7%)
      Alignment : Aligned on interleaves
      Interleave, duration : 40 ms (1.00 video frame)
      Interleave, preload duration : 504 ms
picpicpicpicpicpicpicpicpicpicpicpicpicpicpicpicpicpic
Для увеличения картинки щелкните мышкой по превью

Этот торрент недоступен для скачивания без регистрации, однако доступен по публичной magnet-ссылке (источники с публичных трекеров). Перед использованием ссылки прочтите, пожалуйста Пользовательское соглашение, а также как можно дольше оставайтесь на раздаче! Для того, чтобы скачать сам торрент-файл (который видит больше источников), а также для того, чтобы поблагодарить релизера, вам необходимо зарегистрироваться. Если регистрироваться лень - вы можете также попробовать скачать релиз по нашим партнерским ссылкам ниже.

[underverse.su].t38824.torrent
Трекер: Зарегистрирован   [ 18.04.2014 18:46 ]  

Статус: проверено (by 90ytr90 at 18.04.2014 20:20)
Поблагодарили: 2 человека
Тип торрента: публичный - доступные источники с открытых трекеров: 
Размер: 19,16 GB (занимает 4,38 DVDR, для записи нужно 5 болванок DVDR/RW)
 
 


Последний раз редактировалось: nemos (06.11.2014 05:09), всего редактировалось 11 раз(а)

nemos Пол:Муж

25-Мар-2014 15:03

Внимание! Данная раздача обновлена. 32 серии.

Яндекс.Метрика powered by Sphinx


В Н И М А Н И Е
Сайт не распространяет и не хранит электронные версии произведений, а лишь бесплатно и без коммерческой выгоды (не требуя взамен платы,
SMS и т.д.) предоставляет доступ к создаваемому пользователями каталогу ссылок на торрент-файлы, которые содержат только списки хеш-сумм.
Убедительная просьба с жалобами обращаться напрямую к пользователю, разместившему торрент файл.

Вверх