Loading...
Error

Динамо: Встреча с иллюзионистом / Dynamo: Revealed [2014 г., познавательное шоу, SATRip]

Статистика раздачи
Размер:  391 MB   |    Зарегистрирован:  2 года 8 месяцев   |    Скачан:  27 раз

Полного источника не было: 6 месяцев

Сидов:  0  |  0 KB/s  ]   Личеров:  0  |  0 KB/s  ]

* - сиды/пиры с внешних источников

   
 
Автор Сообщение

ZondeR Пол:Муж

20-Мар-2014 06:02

Динамо: Встреча с иллюзионистом / Dynamo: Revealed

Режиссер / Телекомпания: Discovery

Русское название: Динамо
Оригинальное название: Dynamo
Год выпуска: 2014
Жанр: Познавательное шоу
Выпущено: Discovery Channel & Passion Distribution

Описание:
Стивен Фрейн (Steven Frayne) более известный под псевдонимом Динамо (Dynamo) — британский иллюзионист. Родился 17 декабря 1982 года. Детские годы провел в одном из самых неблагополучных районов Брэдфорда. В школе часто подвергался травле со стороны старших подростков. Чтобы как-то прекратить издевательства, мальчик стал показывать фокусы, отвлекая внимание от себя на трюки, которые он научился делать уже в 11 лет — уже тогда они были необычными и странными. Первые уроки иллюзионизма мальчик получил от дедушки, показавшего внуку некоторые уловки и приемы. Дед был источником вдохновения и настоящим кумиром для Стива.
В новой программе «Динамо – встреча с иллюзионистом» вы увидите знаменитого фокусника с необычной стороны. Специально для зрителей Discovery Channel он приоткроет завесу над своим прошлым, и вы вместе со съемочной группой увидите всю жизнь Динамо: от попыток освоить простейшие карточные трюки своего дедушки до поражающего воображение момента, когда иллюзионист перешел Темзу по воде.

Режиссер: Никки Мэббс

Актеры: Стивен Фрейн (Динамо)

Перевод: Профессиональный (одноголосый, закадровый)

Продолжительность: 00:42:37

Видеокодек: XVID
Качество видео: SATRip
Битрейт видео: ~1144 kb/s
Размер кадра: 704 x 400
Аудиокодек: MP3, 2.0ch.
Битрейт аудио: 128 kb/s
Формат : AVI
Формат/Информация : Audio Video Interleave
Размер файла : 391 Мбайт
Продолжительность : 42 м.
Общий поток : 1282 Кбит/сек
Программа кодирования : VirtualDubMod 1.5.10.2 (build 2540/release)
Библиотека кодирования : VirtualDubMod build 2540/release

Видео
Идентификатор : 0
Формат : MPEG-4 Visual
Профиль формата : Advanced Simple@L5
Параметр BVOP формата : 1
Параметр QPel формата : Нет
Параметр GMC формата : Без точки перехода
Параметр матрицы формата : Default (H.263)
Идентификатор кодека : XVID
Идентификатор кодека/Подсказка : XviD
Продолжительность : 42 м.
Битрейт : 1144 Кбит/сек
Ширина : 704 пикселя
Высота : 400 пикселей
Соотношение сторон : 16:9
Частота кадров : 25,000 кадров/сек
Цветовое пространство : YUV
Субдискретизация насыщенности : 4:2:0
Битовая глубина : 8 бит
Тип развёртки : Прогрессивная
Метод сжатия : С потерями
Бит/(Пиксели*Кадры) : 0.163
Размер потока : 349 Мбайт (89%)
Библиотека кодирования : XviD 1.2.1 (UTC 2008-12-04)

Аудио
Идентификатор : 1
Формат : MPEG Audio
Версия формата : Version 1
Профиль формата : Layer 3
Идентификатор кодека : 55
Идентификатор кодека/Подсказка : MP3
Продолжительность : 42 м.
Вид битрейта : Постоянный
Битрейт : 128 Кбит/сек
Каналы : 2 канала
Частота : 44,1 КГц
Метод сжатия : С потерями
Размер потока : 39,0 Мбайт (10%)
Выравнивание : Разделение по промежуткам
Продолжительность промежутка : 40 мс. (1,00 видеокадр)
Время предзагрузки промежутка : 500 мс.
Библиотека кодирования : LAME3.98r
Настройки программы : -m s -V 4 -q 2 -lowpass 17 -b 128
Скриншоты:

pic pic pic
Для увеличения картинки щелкните мышкой по превью

Этот торрент недоступен для скачивания без регистрации, однако доступен по публичной magnet-ссылке (источники с публичных трекеров). Перед использованием ссылки прочтите, пожалуйста Пользовательское соглашение, а также как можно дольше оставайтесь на раздаче! Для того, чтобы скачать сам торрент-файл (который видит больше источников), а также для того, чтобы поблагодарить релизера, вам необходимо зарегистрироваться. Если регистрироваться лень - вы можете также попробовать скачать релиз по нашим партнерским ссылкам ниже.

[underverse.su].t37396.torrent
Трекер: Зарегистрирован   [ 20.03.2014 06:07 ]  

Статус: проверено (by ZondeR at 20.03.2014 06:18)
Поблагодарили: пока никто не поблагодарил...
Тип торрента: публичный - доступные источники с открытых трекеров: 
Размер: 391 MB (занимает 0,09 DVDR, для записи нужно 1 болванка DVDR/RW)
 
 

Яндекс.Метрика powered by Sphinx


В Н И М А Н И Е
Сайт не распространяет и не хранит электронные версии произведений, а лишь бесплатно и без коммерческой выгоды (не требуя взамен платы,
SMS и т.д.) предоставляет доступ к создаваемому пользователями каталогу ссылок на торрент-файлы, которые содержат только списки хеш-сумм.
Убедительная просьба с жалобами обращаться напрямую к пользователю, разместившему торрент файл.

Вверх