Loading...
Error

Вий (Олег Степченко) [2013 г., фэнтези, триллер, приключения, BDRip] HQ Underverse

Статистика раздачи
Размер:  2,17 GB   |    Зарегистрирован:  2 года 8 месяцев   |    Скачан:  159 раз
Сидов:  1  |  0 KB/s  ]   Личеров:  0  |  0 KB/s  ]

* - сиды/пиры с внешних источников

   
 
Автор Сообщение

HQ Underverse 

19-Мар-2014 07:55

Вий


Год выпуска: 2013
Жанр: фэнтези, триллер, приключения
Страна: Россия , Украина , Великобритания
Режиссер: Олег Степченко
В ролях: Джейсон Флеминг, Андрей Смоляков, Алексей Чадов, Агния Дитковските, Юрий Цурило, Ольга Зайцева, Александр Яковлев, Игорь Жижикин, Валерий Золотухин, Нина Русланова
Сюжет фильма:
Начало XVIII века. Картограф Джонатан Грин совершает научное путешествие из Европы на Восток. Проследовав через Трансильванию и преодолев Карпатские горы, он попадает в затерянную среди непроходимых лесов деревушку. Только воля случая и густой туман могли занести его в это проклятое место. Народ, живущий здесь, не похож ни на один доселе виданный путешественником. Эти люди, оградив себя от остального мира глубоким рвом, наивно верят, что смогут уберечься от нечисти, не понимая, что она уже давно поселилась в их душах и только ждёт случая, чтобы вырваться наружу. Даже в страшном сне учёный-материалист не предполагал, что здесь ему уготована встреча с верным слугой дьявола.

  • Мировая премьера: 30 января 2014
  • Российская премьера: 30 января 2014, «UPI» 3D


Качество видео: BDRip

Продолжительность: 02:10:12
Формат: avi
Видео: XviD, 720x400, 1926 kbps
Аудио: русский, оригинал, AC3 5.1, 448 kbps

Код:

General
Complete name                    : Z:\windoza-share\Вий\Viy.2013.BDRip.XviD.AC3.Rus.O.HQ.Underverse.avi
Format                           : AVI
Format/Info                      : Audio Video Interleave
Format profile                   : OpenDML
File size                        : 2.17 GiB
Duration                         : 2h 10mn
Overall bit rate                 : 2 387 Kbps
Writing application              : VirtualDubMod 1.5.10.2 (build 2540/release)
Writing library                  : VirtualDubMod build 2540/release

Video
ID                               : 0
Format                           : MPEG-4 Visual
Format profile                   : Streaming Video@L1
Format settings, BVOP            : Yes
Format settings, QPel            : No
Format settings, GMC             : No warppoints
Format settings, Matrix          : Custom
Muxing mode                      : Packed bitstream
Codec ID                         : XVID
Codec ID/Hint                    : XviD
Duration                         : 2h 10mn
Bit rate                         : 1 927 Kbps
Width                            : 720 pixels
Height                           : 400 pixels
Display aspect ratio             : 16/9
Frame rate                       : 23.976 fps
Resolution                       : 24 bits
Colorimetry                      : 4:2:0
Scan type                        : Progressive
Bits/(Pixel*Frame)               : 0.279
Stream size                      : 1.75 GiB (81%)
Writing library                  : XviD 64

Audio
ID                               : 1
Format                           : AC-3
Format/Info                      : Audio Coding 3
Codec ID                         : 2000
Duration                         : 2h 10mn
Bit rate mode                    : Constant
Bit rate                         : 448 Kbps
Channel(s)                       : 6 channels
Channel positions                : Front: L C R, Surround: L R, LFE
Sampling rate                    : 48.0 KHz
Stream size                      : 417 MiB (19%)
Alignment                        : Split accross interleaves
Interleave, duration             : 42 ms (1.00 video frame)
Interleave, preload duration     : 500 ms

Релиз группы:

picpicpic
Для увеличения картинки щелкните мышкой по превью

Этот торрент недоступен для скачивания без регистрации, однако доступен по публичной magnet-ссылке (источники с публичных трекеров). Перед использованием ссылки прочтите, пожалуйста Пользовательское соглашение, а также как можно дольше оставайтесь на раздаче! Для того, чтобы скачать сам торрент-файл (который видит больше источников), а также для того, чтобы поблагодарить релизера, вам необходимо зарегистрироваться. Если регистрироваться лень - вы можете также попробовать скачать релиз по нашим партнерским ссылкам ниже.

[underverse.su].t37362.torrent
Трекер: Зарегистрирован   [ 19.03.2014 07:55 ]  

Статус: проверено (by HQ Underverse at 19.03.2014 07:56)
Поблагодарили: 9 человек
Тип торрента: публичный - доступные источники с открытых трекеров: 
Размер: 2,17 GB (занимает 1/2 DVDR, для записи нужно 1 болванка DVDR/RW)
 
 
Похожие темы
Форум Тема Автор Торрент Отв. Посл. сооб.
Наше кино [DVDRip, Low-Res HDRip, и т.д.] Вий (Олег Степченко) [2013 г., фэнтези, триллер, приключения, WEBRip] nemos
1 | 0

0 | 861

88

21.02.2014 17:59

Наше кино [DVDRip, Low-Res HDRip, и т.д.] Вий (Олег Степченко) [2013 г., фэнтези, триллер, приключения, DVDRip] geomolot
0 | 0

5 | 628

39

05.04.2014 20:23

Наше кино [DVDRip, Low-Res HDRip, и т.д.] Вий (Олег Степченко) [2013 г., Фэнтези, триллер, приключения, HDRip] WeaSel
0 | 0

0 | 1163

49

15.03.2014 07:51

Наше кино [DVD / HDDVD / BD / Remux] Вий (Олег Степченко) [2013, Россия, Украина, Германия, Великобритания, Чехия, Фэнтези, триллер, приключения, BDRemux 1080p] uzi2009
4 | 1

2 | 1686

20

04.07.2014 12:36

Наше кино [HDDVDRip / BDRip / WEB-DL / HDTV 1080/720р] Вий (Олег Степченко) [2013 г., Фэнтези, триллер, приключения, WEB-DL 720p] nemos
9 | 0

1 | 2084

397

23.02.2014 17:48


Яндекс.Метрика powered by Sphinx


В Н И М А Н И Е
Сайт не распространяет и не хранит электронные версии произведений, а лишь бесплатно и без коммерческой выгоды (не требуя взамен платы,
SMS и т.д.) предоставляет доступ к создаваемому пользователями каталогу ссылок на торрент-файлы, которые содержат только списки хеш-сумм.
Убедительная просьба с жалобами обращаться напрямую к пользователю, разместившему торрент файл.

Вверх