Loading...
Error

Охота (4 серии из 4) (Стас Иванов) [2014 г., боевик, криминал, SatRip]

Статистика раздачи
Размер:  2,35 GB   |    Зарегистрирован:  2 года 8 месяцев   |    Скачан:  52 раза

Полного источника не было: 2 месяца 20 дней

Сидов:  0  |  0 KB/s  ]   Личеров:  0  |  0 KB/s  ]

* - сиды/пиры с внешних источников

   
 
Автор Сообщение

nemos Пол:Муж

16-Мар-2014 17:09



Год выпуска: 2014
Жанр: боевик, криминал
Страна: Россия
Режиссер: Стас Иванов
В ролях: Павел Трубинер, Михаил Гаврилов, Александр Константинов, Алексей Федькин, Анастасия Стежко, Полина Толстун, Владимир Устюгов, Павел Шингарёв, Валерий Соловьёв, Дмитрий Гусев, Александр Шатохин, Павел Попов, Арсен Атоян, Евгений Данчевский, Владимир Терещенко, Артём Яковлев, Сергей Кисса
Сюжет фильма:
В управлении полиции провинциального городка служат три товарища, три капитана — Игорь Лещинский, Тимур Хлудов и Алексей Горбатенко. Когда маленький город потрясает громкое убийство известного антиквара, у которого к тому же похищена уникальная коллекция эстампов и гравюр XVIII века, полковник Рашников поручает это дело оперативной группе Лещинского. Полицейским удается выйти на след банды, задержать преступников и вернуть похищенное. Вот только организатор преступления погибает…Вскоре в городе появляется криминальный авторитет по кличке Шахматист, известный своим изощренным умом и неуловимостью. Друзья из охотников превращаются в жертв, ведь теперь охота ведется уже на них самих…
Качество видео: SatRip

Продолжительность: 00:52:31 серия
Формат: AVI
Видео: XviD, 720х416, 1 795 kbps
Аудио: русский, MP3 2.0, 128 kbps

Код:

D:\Фильмы (роздача)\Ohota.2014.SATRip\Ohota.04.2014.SATRip.KZ.avi
   General
      Complete name : D:\Фильмы (роздача)\Ohota.2014.SATRip\Ohota.04.2014.SATRip.KZ.avi
      Format : AVI
      Format/Info : Audio Video Interleave
      File size : 726 MiB
      Duration : 52mn 31s
      Overall bit rate : 1 933 Kbps
      Writing application : VirtualDubMod 1.5.10.2 (build 2540/release)
      Writing library : VirtualDub build 32507/release
   Video #0
      ID : 0
      Format : MPEG-4 Visual
      Format profile : Advanced Simple@L5
      Format settings, BVOP : 2
      Format settings, QPel : No
      Format settings, GMC : No warppoints
      Format settings, Matrix : Default (MPEG)
      Codec ID : XVID
      Codec ID/Hint : XviD
      Duration : 52mn 31s
      Bit rate : 1 795 Kbps
      Width : 720 pixels
      Height : 416 pixels
      Display aspect ratio : 1.731
      Frame rate : 25.000 fps
      Color space : YUV
      Chroma subsampling : 4:2:0
      Bit depth : 8 bits
      Scan type : Progressive
      Compression mode : Lossy
      Bits/(Pixel*Frame) : 0.240
      Stream size : 674 MiB (93%)
      Writing library : XviD 64
   Audio #1
      ID : 1
      Format : MPEG Audio
      Format version : Version 1
      Format profile : Layer 3
      Mode : Joint stereo
      Mode extension : MS Stereo
      Codec ID : 55
      Codec ID/Hint : MP3
      Duration : 52mn 31s
      Bit rate mode : Constant
      Bit rate : 128 Kbps
      Channel(s) : 2 channels
      Sampling rate : 48.0 KHz
      Compression mode : Lossy
      Stream size : 48.1 MiB (7%)
      Alignment : Aligned on interleaves
      Interleave, duration : 40 ms (1.00 video frame)
      Interleave, preload duration : 504 ms
picpicpicpicpicpicpicpicpicpicpicpicpicpicpicpicpicpic
Для увеличения картинки щелкните мышкой по превью

Этот торрент недоступен для скачивания без регистрации, однако доступен по публичной magnet-ссылке (источники с публичных трекеров). Перед использованием ссылки прочтите, пожалуйста Пользовательское соглашение, а также как можно дольше оставайтесь на раздаче! Для того, чтобы скачать сам торрент-файл (который видит больше источников), а также для того, чтобы поблагодарить релизера, вам необходимо зарегистрироваться. Если регистрироваться лень - вы можете также попробовать скачать релиз по нашим партнерским ссылкам ниже.

[underverse.su].t37291.torrent
Трекер: Зарегистрирован   [ 16.03.2014 17:09 ]  

Статус: проверено (by 90ytr90 at 17.03.2014 14:53)
Поблагодарили: 4 человека
Тип торрента: публичный - доступные источники с открытых трекеров: 
Размер: 2,35 GB (занимает 0,54 DVDR, для записи нужно 1 болванка DVDR/RW)
 
 


Последний раз редактировалось: nemos (17.03.2014 14:44), всего редактировалось 1 раз

nemos Пол:Муж

16-Мар-2014 17:29

Примечание: на кинопоиске пока нет этого сериала, как появится сделаю ссылочку (эмблемку)

Яндекс.Метрика powered by Sphinx


В Н И М А Н И Е
Сайт не распространяет и не хранит электронные версии произведений, а лишь бесплатно и без коммерческой выгоды (не требуя взамен платы,
SMS и т.д.) предоставляет доступ к создаваемому пользователями каталогу ссылок на торрент-файлы, которые содержат только списки хеш-сумм.
Убедительная просьба с жалобами обращаться напрямую к пользователю, разместившему торрент файл.

Вверх