Loading...
Error

МакКаник / McCanick (Джош С. Уоллер) [2013 г., Триллер, Драма, Криминал, HDRip] VO

Статистика раздачи
Размер:  1,48 GB   |    Зарегистрирован:  2 года 8 месяцев   |    Скачан:  14 раз

Полного источника не было: 2 года 3 месяца

Сидов:  0  |  0 KB/s  ]   Личеров:  0  |  0 KB/s  ]

* - сиды/пиры с внешних источников

   
 
Автор Сообщение

Су-34 Пол:Муж

16-Мар-2014 16:50

МакКаник / McCanick


Год выпуска: 2013
Жанр: Триллер, Драма, Криминал
Страна: США
Режиссер: Джош С. Уоллер
В ролях: Дэвид Морс, Кори Монтейт, Майк Фогель, Рэйчел Николс, Киаран Хайндс, Тревор Морган, Аарон Йу, Трейси Томс, Кевин Дэниелс, Франклин Ойеда Смит
Сюжет фильма:
В жизни 59-летнего детектива МакКаника достаточно проблем: ушла жена, сын не разговаривает с ним много лет. И главное, он узнает, что Саймон Уикс - человек, которого он семь лет назад посадил за убийство, вышел на свободу. Как раз тогда, когда у него появилась надежда что-то изменить в своей жизни к лучшему. Но теперь прошлое угрожает разрушить его мир, и МакКаник начинает охоту за Уиксом.

  • Мировая премьера: 9 сентября 2013


Качество видео: HDRip

Продолжительность: 01:36:11
Формат: AVI
Видео: XviD, 720x320, 1700 kbps
Аудио: русский, одноголосый закадровый [любительский], AC3 5.1, 448 kbps

Код:

General
 Complete name : I:\МакКаник\McCanick_2013.avi
 Format : AVI
 Format/Info : Audio Video Interleave
 File size : 1.48 GiB
 Duration : 1h 36mn
 Overall bit rate : 2 205 Kbps
 Movie name : Приятного просмотра!
 Writing application : VirtualDubMod 1.5.10.2 (build 2540/release)
 Video #0
 ID : 0
 Format : MPEG-4 Visual
 Format profile : Advanced Simple@L5
 Format settings, BVOP : 2
 Format settings, QPel : No
 Format settings, GMC : No warppoints
 Format settings, Matrix : Custom
 Codec ID : XVID
 Codec ID/Hint : XviD
 Duration : 1h 36mn
 Bit rate : 1 748 Kbps
 Width : 720 pixels
 Height : 320 pixels
 Display aspect ratio : 2.25:1
 Frame rate : 23.976 fps
 Color space : YUV
 Chroma subsampling : 4:2:0
 Bit depth : 8 bits
 Scan type : Progressive
 Compression mode : Lossy
 Bits/(Pixel*Frame) : 0.316
 Stream size : 1.17 GiB (79%)
 Writing library : XviD 65
 Audio #1
 ID : 1
 Format : AC-3
 Format/Info : Audio Coding 3
 Mode extension : CM (complete main)
 Format settings, Endianness : Big
 Codec ID : 2000
 Duration : 1h 36mn
 Bit rate mode : Constant
 Bit rate : 448 Kbps
 Channel count : 6 channels
 Channel positions : Front: L C R, Side: L R, LFE
 Sampling rate : 48.0 KHz
 Bit depth : 16 bits
 Compression mode : Lossy
 Stream size : 308 MiB (20%)
 Alignment : Split accross interleaves
 Interleave, duration : 42 ms (1.00 video frame)
 Interleave, preload duration : 500 ms
Семпл: http://multi-up.com/959268

picpicpicpic
Для увеличения картинки щелкните мышкой по превью

Этот торрент недоступен для скачивания без регистрации, однако доступен по публичной magnet-ссылке (источники с публичных трекеров). Перед использованием ссылки прочтите, пожалуйста Пользовательское соглашение, а также как можно дольше оставайтесь на раздаче! Для того, чтобы скачать сам торрент-файл (который видит больше источников), а также для того, чтобы поблагодарить релизера, вам необходимо зарегистрироваться. Если регистрироваться лень - вы можете также попробовать скачать релиз по нашим партнерским ссылкам ниже.

[underverse.su].t37290.torrent
Трекер: Зарегистрирован   [ 16.03.2014 16:50 ]  

Статус: проверено (by 90ytr90 at 17.03.2014 14:29)
Поблагодарили: пока никто не поблагодарил...
Тип торрента: публичный - доступные источники с открытых трекеров: 
Размер: 1,48 GB (занимает 0,34 DVDR, для записи нужно 1 болванка DVDR/RW)
 
 

Яндекс.Метрика powered by Sphinx


В Н И М А Н И Е
Сайт не распространяет и не хранит электронные версии произведений, а лишь бесплатно и без коммерческой выгоды (не требуя взамен платы,
SMS и т.д.) предоставляет доступ к создаваемому пользователями каталогу ссылок на торрент-файлы, которые содержат только списки хеш-сумм.
Убедительная просьба с жалобами обращаться напрямую к пользователю, разместившему торрент файл.

Вверх