Loading...
Error

Следователь Протасов (1-16 серий из 16) (Константин Фролов, Константин Смирнов) [2013 г., детектив, боевик, криминал, SatRip]

Статистика раздачи
Размер:  8,26 GB   |    Зарегистрирован:  2 года 8 месяцев   |    Скачан:  21 раз

Полного источника не было: 27 дней

Сидов:  0  |  0 KB/s  ]   Личеров:  0  |  0 KB/s  ]

* - сиды/пиры с внешних источников

   
 
Автор Сообщение

nemos Пол:Муж

15-Мар-2014 17:50



Год выпуска: 2013
Жанр: детектив, боевик, криминал
Страна: Россия
Режиссер: Константин Фролов, Константин Смирнов
В ролях: Вячеслав Разбегаев, Анатолий Котенёв, Наталия Быстрова, Юлия Такшина, Игорь Денисов, Олег Радкевич, Сергей Широчин, Игорь Сеньков, Олеся Грибок, Татьяна Чердынцева
Качество видео: SatRip

Продолжительность: 00:47:57 серия
Формат: AVI
Видео: DivX, 720x384, 1501 kbps
Аудио: русский, MP3 2.0, 128 kbps

Елисей Протасов, которого, благодаря редкому имени и крутому характеру, друзья называют Лешим. Недруги же называют Лисом. Протасов работает следователем по особо важным делам в областной прокуратуре. Он старший советник юстиции, по званию — полковник. Бескомпромиссный, упрямый и проницательный Елисей Протасов вполне мог бы стать идеальным мужчиной, но этому мешает его тяжелый характер.

Код:

D:\Фильмы (роздача)\Sledovatel.Protasov.SATRip\Sledovatel.Protasov.01.SATRip.avi
   General
      Complete name : D:\Фильмы (роздача)\Sledovatel.Protasov.SATRip\Sledovatel.Protasov.01.SATRip.avi
      Format : AVI
      Format/Info : Audio Video Interleave
      File size : 562 MiB
      Duration : 47mn 57s
      Overall bit rate : 1 639 Kbps
      Writing library : VirtualDub build 35491/release
   Video #0
      ID : 0
      Format : MPEG-4 Visual
      Format settings, BVOP : 1
      Format settings, QPel : No
      Format settings, GMC : No warppoints
      Format settings, Matrix : Default (H.263)
      Muxing mode : Packed bitstream
      Codec ID : DX50
      Codec ID/Hint : DivX 5
      Duration : 47mn 57s
      Bit rate : 1 501 Kbps
      Width : 720 pixels
      Height : 384 pixels
      Display aspect ratio : 1.85:1
      Frame rate : 25.000 fps
      Color space : YUV
      Chroma subsampling : 4:2:0
      Bit depth : 8 bits
      Scan type : Progressive
      Compression mode : Lossy
      Bits/(Pixel*Frame) : 0.217
      Stream size : 515 MiB (92%)
      Writing library : DivX 6.8.5 (UTC 2009-08-20)
   Audio #1
      ID : 1
      Format : MPEG Audio
      Format version : Version 1
      Format profile : Layer 3
      Mode : Joint stereo
      Mode extension : MS Stereo
      Codec ID : 55
      Codec ID/Hint : MP3
      Duration : 47mn 57s
      Bit rate mode : Constant
      Bit rate : 128 Kbps
      Channel(s) : 2 channels
      Sampling rate : 48.0 KHz
      Compression mode : Lossy
      Stream size : 43.9 MiB (8%)
      Alignment : Split accross interleaves
      Interleave, duration : 40 ms (1.00 video frame)
      Interleave, preload duration : 500 ms
picpicpicpicpicpicpicpicpicpicpicpicpicpicpicpicpicpicpic
Для увеличения картинки щелкните мышкой по превью

Этот торрент недоступен для скачивания без регистрации, однако доступен по публичной magnet-ссылке (источники с публичных трекеров). Перед использованием ссылки прочтите, пожалуйста Пользовательское соглашение, а также как можно дольше оставайтесь на раздаче! Для того, чтобы скачать сам торрент-файл (который видит больше источников), а также для того, чтобы поблагодарить релизера, вам необходимо зарегистрироваться. Если регистрироваться лень - вы можете также попробовать скачать релиз по нашим партнерским ссылкам ниже.

[underverse.su].t37485.torrent
Трекер: Зарегистрирован   [ 22.03.2014 19:49 ]  

Статус: проверено (by Jimmy at 23.03.2014 05:27)
Поблагодарили: 1 человек
Тип торрента: публичный - доступные источники с открытых трекеров: 
Размер: 8,26 GB (занимает 1,89 DVDR, для записи нужно 2 болванки DVDR/RW)
 
 


Последний раз редактировалось: nemos (06.11.2014 09:14), всего редактировалось 3 раз(а)

nemos Пол:Муж

16-Мар-2014 16:33

Внимание! Данная раздача обновлена : 16-ать серий. :super:

Яндекс.Метрика powered by Sphinx


В Н И М А Н И Е
Сайт не распространяет и не хранит электронные версии произведений, а лишь бесплатно и без коммерческой выгоды (не требуя взамен платы,
SMS и т.д.) предоставляет доступ к создаваемому пользователями каталогу ссылок на торрент-файлы, которые содержат только списки хеш-сумм.
Убедительная просьба с жалобами обращаться напрямую к пользователю, разместившему торрент файл.

Вверх