Loading...
Error

Шериф 2 / Серии: 01-16 из 16 (Каринэ Фолиян) [2012 г., детектив, SATRip]

Статистика раздачи
Размер:  8,59 GB   |    Зарегистрирован:  2 года 8 месяцев   |    Скачан:  0 раз

Полного источника не было: 2 года 7 месяцев

Сидов:  0  |  0 KB/s  ]   Личеров:  0  |  0 KB/s  ]

* - сиды/пиры с внешних источников

   
 
Автор Сообщение

vester78 Пол:Муж

15-Мар-2014 10:55

Шериф 2 [01-16 из 16]


Год выпуска: 2012
Жанр: Детектив
Страна: Россия
Режиссер: Каринэ Фолиян
В ролях: Николай Добрынин, Анастасия Бухарцева, Фархад Махмудов, Денис Васильев, Полина Фокина, Михаил Богдасаров, Владимир Зайцев, Антон Шурцов, Виктор Мютников, Иннокентий Тарабара, Андрей Харыбин, Светлана Йозефий, Тимофей Фёдоров, Людмила Мальцева, Мухтар Гусенгаджиев, Софья Мицкевич, Елена Махова, Владимир Хайцев, Елена Калинина (IV), Валерий Иваков, Олег Комаров (II), Виталий Кудрявцев, Владимир Царулков, Андрей Белозеров, Валентин Терехов, Ульяна Похлебаева
Сюжет фильма:
Главный герой – московский опер Василий Шаронов по прозвищу Шериф продолжает «прогибать» под себя этот мир, не вписываясь в «систему». Пусть этот мир и не самый лучший, но в нем должны быть люди, которые добиваются справедливости несмотря ни на что. И пусть коллеги шепчутся за его спиной, ругая за несносный характер, пусть из дома выгнала жена, и с сыном общий язык так и не находится, но, как говорится, «талант не пропьешь», и все равно все обращаются к несносному Шерифу, когда не могут раскрыть очередное запутанное дело. Восемь громких убийств, которые по горячим следам раскрывает уверенный в себе и жесткий Шаронов, – это далеко не предел для Шерифа и его команды: старшего лейтенанта Заура Хетагурова, младшего лейтенанта Юрия Климчика и новичка Субботина, которому предстоит съесть не один пуд соли, прежде чем понять, что значит быть подчиненным Шерифа. Но несмотря на все сложности профессии, за маской ироничного циника и дотошного опера Шаронова скрывается человек, не лишенный простых человеческих чувств.

Продолжительность: 16 x ~ 00:46:32
Формат: AVI
Видео: DivX, 704х416, 1500 kbps
Аудио: русский, не требуется, MP3 2.0, 192.00 kbps

Код:

Общее
Полное имя                       : D:\ТОРРЕНТ\Шериф 2\6-я Серия.avi
Формат                           : AVI
Формат/Информация                : Audio Video Interleave
Размер файла                     : 550 Мбайт
Продолжительность                : 45 м.
Общий поток                      : 1689 Кбит/сек
Программа кодирования            : VirtualDubMod 1.5.4.1 (build 2178/release)
Библиотека кодирования           : VirtualDubMod build 2178/release

Видео
Идентификатор                    : 0
Формат                           : MPEG-4 Visual
Профиль формата                  : Advanced Simple@L5
Параметр BVOP формата            : 1
Параметр QPel формата            : Нет
Параметр GMC формата             : Без точки перехода
Параметр матрицы формата         : Выборочная
Идентификатор кодека             : XVID
Идентификатор кодека/Подсказка   : XviD
Продолжительность                : 45 м.
Битрейт                          : 1490 Кбит/сек
Ширина                           : 704 пикселя
Высота                           : 416 пикселей
Соотношение сторон               : 1,692
Частота кадров                   : 25,000 кадров/сек
Цветовое пространство            : YUV
Субдискретизация насыщенности    : 4:2:0
Битовая глубина                  : 8 бит
Тип развёртки                    : Прогрессивная
Метод сжатия                     : С потерями
Бит/(Пиксели*Кадры)              : 0.203
Размер потока                    : 485 Мбайт (88%)
Библиотека кодирования           : XviD 64

Аудио
Идентификатор                    : 1
Формат                           : MPEG Audio
Версия формата                   : Version 1
Профиль формата                  : Layer 3
Режим                            : Joint stereo
Расширение режима                : MS Stereo
Идентификатор кодека             : 55
Идентификатор кодека/Подсказка   : MP3
Продолжительность                : 45 м.
Вид битрейта                     : Постоянный
Битрейт                          : 192 Кбит/сек
Каналы                           : 2 канала
Частота                          : 48,0 КГц
Метод сжатия                     : С потерями
Размер потока                    : 62,5 Мбайт (11%)
Выравнивание                     : Соединение по промежуткам
Продолжительность промежутка     : 80  мс. (2,00 видеокадра)
Время предзагрузки промежутка    : 504  мс.
Библиотека кодирования           : LAME3.97
Настройки программы              : -m j -V 4 -q 2 -lowpass 18.6 -b 192

picpicpic
Для увеличения картинки щелкните мышкой по превью

Этот торрент недоступен для скачивания без регистрации, однако доступен по публичной magnet-ссылке (источники с публичных трекеров). Перед использованием ссылки прочтите, пожалуйста Пользовательское соглашение, а также как можно дольше оставайтесь на раздаче! Для того, чтобы скачать сам торрент-файл (который видит больше источников), а также для того, чтобы поблагодарить релизера, вам необходимо зарегистрироваться. Если регистрироваться лень - вы можете также попробовать скачать релиз по нашим партнерским ссылкам ниже.

[underverse.su].t37252.torrent
Трекер: Зарегистрирован   [ 15.03.2014 10:55 ]  

Статус: проверено (by Паукан at 15.03.2014 11:07)
Поблагодарили: пока никто не поблагодарил...
Тип торрента: публичный - доступные источники с открытых трекеров: 
Размер: 8,59 GB (занимает 1,96 DVDR, для записи нужно 2 болванки DVDR/RW)
 
 

Паукан Пол:Муж

15-Мар-2014 11:07

1. Российские сериалы надо релизить в разделе хUSSR сериалов
2. Неверно оформлена шапка, на первый раз сам дооформлю. Качество здесь SATRip, укажу на первый раз.

15-Мар-2014 11:09

Топик был перенесен из форума TV Series в форум xUSSR сериалы


Паукан
 

Яндекс.Метрика powered by Sphinx


В Н И М А Н И Е
Сайт не распространяет и не хранит электронные версии произведений, а лишь бесплатно и без коммерческой выгоды (не требуя взамен платы,
SMS и т.д.) предоставляет доступ к создаваемому пользователями каталогу ссылок на торрент-файлы, которые содержат только списки хеш-сумм.
Убедительная просьба с жалобами обращаться напрямую к пользователю, разместившему торрент файл.

Вверх