Loading...
Error

Перелётные птицы (4 серии из 4) (Богдан Дробязко) [2014 г., драма, криминал, SatRip]

Статистика раздачи
Размер:  2,48 GB   |    Зарегистрирован:  2 года 8 месяцев   |    Скачан:  27 раз

Полного источника не было: 1 год 10 месяцев

Сидов:  0  |  0 KB/s  ]   Личеров:  0  |  0 KB/s  ]

* - сиды/пиры с внешних источников

   
 
Автор Сообщение

nemos Пол:Муж

14-Мар-2014 18:26



Год выпуска: 2014
Жанр: Драма, криминал
Страна: Россия
Режиссер: Богдан Дробязко
В ролях: Илья Шакунов, Кристина Бабушкина, Игорь Савочкин, Андрей Межулис, Николай Боклан, Виталий Линецкий, Мерджен Халлыева, Ольга Сторожук
Качество видео: SatRip

Продолжительность: 00:46:08 серия
Формат: AVI
Видео: DivX, 720x400, 1845 kbps
Аудио: русский, MP3 2.0, 128 kbps

В небольшом поселке на границе с Латвией угрюмый, нелюдимый человек по прозвищу Гудини промышляет доставкой нелегалов в Европу по секретной тропе, минуя пограничников. Ему все равно, кого переправлять: беженцев, преступников или просто мотающихся по свету людей. Никто не знает, кто он такой, откуда, и почему этим занимается. Единственное, что известно о Гудини – он всегда выполняет свою работу со стопроцентной гарантией. Однажды ему приходится сопровождать в другую страну маленькую беспризорную мулатку Машу, которую бандиты хотят продать на органы. Волей судьбы два одиноких человека - большой и маленький – оказываются в эпицентре криминальных событий.

Код:

D:\Фильмы (роздача)\Pereletnije.pticy.2013.DivX.SATRip\Pereletnije.pticy.(4.serija.iz.4).2013.DivX.SATRip.avi
   General
      Complete name : D:\Фильмы (роздача)\Pereletnije.pticy.2013.DivX.SATRip\Pereletnije.pticy.(4.serija.iz.4).2013.DivX.SATRip.avi
      Format : AVI
      Format/Info : Audio Video Interleave
      File size : 654 MiB
      Duration : 46mn 8s
      Overall bit rate : 1 982 Kbps
      Writing library : Boilsoft AVI tool build 1/release
   Video #0
      ID : 0
      Format : MPEG-4 Visual
      Format settings, BVOP : 1
      Format settings, QPel : No
      Format settings, GMC : No warppoints
      Format settings, Matrix : Default (H.263)
      Muxing mode : Packed bitstream
      Codec ID : DX50
      Codec ID/Hint : DivX 5
      Duration : 46mn 8s
      Bit rate : 1 845 Kbps
      Width : 720 pixels
      Height : 400 pixels
      Display aspect ratio : 16:9
      Frame rate : 25.000 fps
      Color space : YUV
      Chroma subsampling : 4:2:0
      Bit depth : 8 bits
      Scan type : Progressive
      Compression mode : Lossy
      Bits/(Pixel*Frame) : 0.256
      Stream size : 609 MiB (93%)
      Writing library : DivX 6.8.5 (UTC 2009-08-20)
   Audio #1
      ID : 1
      Format : MPEG Audio
      Format version : Version 1
      Format profile : Layer 3
      Mode : Joint stereo
      Mode extension : MS Stereo
      Codec ID : 55
      Codec ID/Hint : MP3
      Duration : 46mn 8s
      Bit rate mode : Constant
      Bit rate : 128 Kbps
      Channel(s) : 2 channels
      Sampling rate : 48.0 KHz
      Compression mode : Lossy
      Stream size : 42.2 MiB (6%)
      Alignment : Split accross interleaves
      Interleave, duration : 40 ms (1.00 video frame)
      Interleave, preload duration : 500 ms
picpicpicpicpicpicpicpicpicpicpicpicpicpicpicpicpicpic
Для увеличения картинки щелкните мышкой по превью

Этот торрент недоступен для скачивания без регистрации, однако доступен по публичной magnet-ссылке (источники с публичных трекеров). Перед использованием ссылки прочтите, пожалуйста Пользовательское соглашение, а также как можно дольше оставайтесь на раздаче! Для того, чтобы скачать сам торрент-файл (который видит больше источников), а также для того, чтобы поблагодарить релизера, вам необходимо зарегистрироваться. Если регистрироваться лень - вы можете также попробовать скачать релиз по нашим партнерским ссылкам ниже.

[underverse.su].t37232.torrent
Трекер: Зарегистрирован   [ 14.03.2014 18:39 ]  

Статус: проверено (by 90ytr90 at 15.03.2014 16:43)
Поблагодарили: 3 человека
Тип торрента: публичный - доступные источники с открытых трекеров: 
Размер: 2,48 GB (занимает 0,57 DVDR, для записи нужно 1 болванка DVDR/RW)
 
 

Яндекс.Метрика powered by Sphinx


В Н И М А Н И Е
Сайт не распространяет и не хранит электронные версии произведений, а лишь бесплатно и без коммерческой выгоды (не требуя взамен платы,
SMS и т.д.) предоставляет доступ к создаваемому пользователями каталогу ссылок на торрент-файлы, которые содержат только списки хеш-сумм.
Убедительная просьба с жалобами обращаться напрямую к пользователю, разместившему торрент файл.

Вверх