Loading...
Error

Голодные игры: И вспыхнет пламя / The Hunger Games: Catching Fire (Френсис Лоуренс / Francis Lawrence) [2013 г., фантастика, боевик, триллер, приключения, BDRip] [IMAX] Dub + Original HQ Underverse

Статистика раздачи
Размер:  2,91 GB   |    Зарегистрирован:  2 года 8 месяцев   |    Скачан:  57 раз
Сидов:  1  |  0 KB/s  ]   Личеров:  1  |  109 KB/s  ]

* - сиды/пиры с внешних источников

   
 
Автор Сообщение

HQ Underverse 

09-Мар-2014 04:30

Голодные игры: И вспыхнет пламя / The Hunger Games: Catching Fire


Год выпуска: 2013
Жанр: фантастика, боевик, триллер, приключения
Страна: США
Режиссер: Френсис Лоуренс / Francis Lawrence
В ролях: Дженнифер Лоуренс, Джош Хатчерсон, Сэм Клафлин, Джена Мэлоун, Вуди Харрельсон, Элизабет Бэнкс, Лиам Хемсворт, Дональд Сазерленд, Филип Сеймур Хоффман, Стэнли Туччи
Сюжет фильма:
Сумев выжить на безжалостных Голодных играх, Китнисс Эвердин и Пит Мелларк возвращаются домой. Но теперь они в еще большей опасности, так как своим отказом играть по правилам на Арене бросили вызов Капитолию. По традиции следующие, юбилейные, Голодные игры должны стать особенными, и в этот раз в них участвуют только победители прошлых лет. Китнисс и Пит вынуждены вновь выйти на Арену, где будут соперничать с сильнейшими. Правила игры меняются. Арена еще опасней, масштаб еще больше, ставки еще выше!

  • Мировая премьера: 11 ноября 2013
  • Российская премьера: 21 ноября 2013, «Вольга»


Качество видео: BDRip

Продолжительность: 02:26:14
Формат: avi
Видео: XviD, 720x400, 1936 kbps
Аудио #1: русский, дублированный [лицензия], AC3 5.1, 448 kbps
Аудио #2: английский, оригинал, AC3 5.1, 448 kbps

Код:

General
Complete name                    : D:\Video\Movies\Releases\Hunger.Games.-.Catching.Fire.2013.BDRip.XviD.AC3.Rus.D.Eng.O.HQ.Underverse.avi
Format                           : AVI
Format/Info                      : Audio Video Interleave
Format profile                   : OpenDML
File size                        : 2.91 GiB
Duration                         : 2h 26mn
Overall bit rate                 : 2 849 Kbps
Writing application              : VirtualDubMod 1.5.10.2 (build 2540/release)
Writing library                  : VirtualDubMod build 2540/release

Video
ID                               : 0
Format                           : MPEG-4 Visual
Format profile                   : Streaming Video@L1
Format settings, BVOP            : Yes
Format settings, QPel            : No
Format settings, GMC             : No warppoints
Format settings, Matrix          : Custom
Muxing mode                      : Packed bitstream
Codec ID                         : XVID
Codec ID/Hint                    : XviD
Duration                         : 2h 26mn
Bit rate                         : 1 937 Kbps
Width                            : 720 pixels
Height                           : 400 pixels
Display aspect ratio             : 16/9
Frame rate                       : 23.976 fps
Resolution                       : 24 bits
Colorimetry                      : 4:2:0
Scan type                        : Progressive
Bits/(Pixel*Frame)               : 0.280
Stream size                      : 1.98 GiB (68%)
Writing library                  : XviD 64

Audio #1
ID                               : 1
Format                           : AC-3
Format/Info                      : Audio Coding 3
Codec ID                         : 2000
Duration                         : 2h 26mn
Bit rate mode                    : Constant
Bit rate                         : 448 Kbps
Channel(s)                       : 6 channels
Channel positions                : Front: L C R, Surround: L R, LFE
Sampling rate                    : 48.0 KHz
Stream size                      : 469 MiB (16%)
Alignment                        : Split accross interleaves
Interleave, duration             : 42 ms (1.00 video frame)
Interleave, preload duration     : 500 ms

Audio #2
ID                               : 2
Format                           : AC-3
Format/Info                      : Audio Coding 3
Codec ID                         : 2000
Duration                         : 2h 26mn
Bit rate mode                    : Constant
Bit rate                         : 448 Kbps
Channel(s)                       : 6 channels
Channel positions                : Front: L C R, Surround: L R, LFE
Sampling rate                    : 48.0 KHz
Stream size                      : 469 MiB (16%)
Alignment                        : Split accross interleaves
Interleave, duration             : 42 ms (1.00 video frame)
Interleave, preload duration     : 500 ms

Семпл: http://multi-up.com/957402

Релиз группы:

picpicpic
Для увеличения картинки щелкните мышкой по превью

Этот торрент недоступен для скачивания без регистрации, однако доступен по публичной magnet-ссылке (источники с публичных трекеров). Перед использованием ссылки прочтите, пожалуйста Пользовательское соглашение, а также как можно дольше оставайтесь на раздаче! Для того, чтобы скачать сам торрент-файл (который видит больше источников), а также для того, чтобы поблагодарить релизера, вам необходимо зарегистрироваться. Если регистрироваться лень - вы можете также попробовать скачать релиз по нашим партнерским ссылкам ниже.

[underverse.su].t37033.torrent
Трекер: Зарегистрирован   [ 09.03.2014 04:30 ]  

Статус: проверено (by Паукан at 09.03.2014 08:10)
Поблагодарили: 1 человек
Тип торрента: публичный - доступные источники с открытых трекеров: 
Размер: 2,91 GB (занимает 2/3 DVDR, для записи нужно 1 болванка DVDR/RW)
 
 
Похожие темы
Форум Тема Автор Торрент Отв. Посл. сооб.
Зарубежное кино [DVDRip, Low-Res HDRip, и т.д.] Голодные игры / The Hunger Games (Гэри Росс) [2012 г., Фантастика, боевик, триллер, драма, HDRip] Zamez WeaSel
0 | 0

2 | 2477

153

05.11.2012 22:42

Зарубежное кино [DVDRip, Low-Res HDRip, и т.д.] Голодные игры: И вспыхнет пламя / The Hunger Games: Catching Fire (Френсис Лоуренс / Francis Lawrence) [2013 г., фантастика, боевик, триллер, приключения, BDRip-AVC] [IMAX] Dub + Original (Eng) + Sub... 90ytr90
3 | 0

0 | 887

28

09.03.2014 18:15

Зарубежное кино [DVDRip, Low-Res HDRip, и т.д.] Голодные игры: И вспыхнет пламя / The Hunger Games: Catching Fire (Френсис Лоуренс / Francis Lawrence) [2013 г., фантастика, боевик, триллер, приключения, HDRip] [IMAX] Dub 90ytr90
8 | 1

0 | 921

66

09.03.2014 19:05

Зарубежное кино [DVDRip, Low-Res HDRip, и т.д.] Голодные игры: И вспыхнет пламя / The Hunger Games: Catching Fire (Френсис Лоуренс / Francis Lawrence) [2013 г., фантастика, боевик, триллер, приключения, BDRip-AVC] [IMAX] Dub + Original (Eng) + Sub... 90ytr90
1 | 1

0 | 661

20

11.12.2014 19:17

Зарубежное кино [DVDRip, Low-Res HDRip, и т.д.] Голодные игры: И вспыхнет пламя / The Hunger Games: Catching Fire (Френсис Лоуренс) [2013 г., фантастика, боевик, триллер, приключения, HDRip] [IMAX] Dub 90ytr90
65 | 4

0 | 1130

91

11.12.2014 19:42

T Зарубежное кино [DVDRip, Low-Res HDRip, и т.д.] Голодные игры: Сойка-пересмешница. Часть II / The Hunger Games: Mockingjay - Part 2 (Френсис Лоуренс / Francis Lawrence) [2015 г., фантастика, приключения, BDRip-AVC] Dub (iTunes) + Original (Eng) +... 90ytr90
64 | 7

0 | 318

5

15.10.2016 19:37

T Зарубежное кино [DVDRip, Low-Res HDRip, и т.д.] Голодные игры: Сойка-пересмешница. Часть II / The Hunger Games: Mockingjay - Part 2 (Френсис Лоуренс / Francis Lawrence) [2015 г., фантастика, приключения, BDRip-AVC] Dub (iTunes) + Sub (Rus) 90ytr90
20 | 0

0 | 311

0

15.10.2016 19:32

T Зарубежное кино [DVDRip, Low-Res HDRip, и т.д.] Голодные игры: Сойка-пересмешница. Часть II / The Hunger Games: Mockingjay - Part 2 (Френсис Лоуренс / Francis Lawrence) [2015 г., фантастика, приключения, HDRip] Dub (iTunes) 90ytr90
376 | 4

0 | 299

3

15.10.2016 19:27

T Зарубежное кино [DVDRip, Low-Res HDRip, и т.д.] Голодные игры: Сойка-пересмешница. Часть II / The Hunger Games: Mockingjay - Part 2 (Френсис Лоуренс / Francis Lawrence) [2015 г., фантастика, приключения, HDRip] Dub (iTunes) 90ytr90
924 | 22

0 | 284

3

15.10.2016 19:13

T Зарубежное кино [DVDRip, Low-Res HDRip, и т.д.] Голодные игры: Сойка-пересмешница. Часть II / The Hunger Games: Mockingjay - Part 2 (Френсис Лоуренс) [2015 г., фантастика, боевик, приключения, DVDRip] Dub (звук с CAMRip) + Original makkol
54 | 3

0 | 701

27

08.03.2016 13:01


Яндекс.Метрика powered by Sphinx


В Н И М А Н И Е
Сайт не распространяет и не хранит электронные версии произведений, а лишь бесплатно и без коммерческой выгоды (не требуя взамен платы,
SMS и т.д.) предоставляет доступ к создаваемому пользователями каталогу ссылок на торрент-файлы, которые содержат только списки хеш-сумм.
Убедительная просьба с жалобами обращаться напрямую к пользователю, разместившему торрент файл.

Вверх