Loading...
Error

Кухня (3 сезон /серии 1-20 серии из 20) (Дмитрий Дьяченко) [2014 г., комедия, SatRip]

Статистика раздачи
Размер:  5,51 GB   |    Зарегистрирован:  2 года 8 месяцев   |    Скачан:  8 раз

Полного источника не было: 2 года 2 месяца

Сидов:  0  |  0 KB/s  ]   Личеров:  0  |  0 KB/s  ]

* - сиды/пиры с внешних источников

   
 
Автор Сообщение

UseR Пол:Муж

07-Мар-2014 15:32

Кухня 3


Год выпуска: 2014
Жанр: комедия
Страна: Россия
Режиссер: Дмитрий Дьяченко
В ролях: Дмитрий Назаров, Марк Богатырев, Дмитрий Нагиев, Юлия Такшина, Елена Подкаминская, Марина Могилевская, Виктор Хориняк, Никита Тарасов
Сюжет фильма:
Максим возвращается работать в родной ресторан официантом после того как серьезно поругался с шеф-поваром Виктором Петровичем. И несмотря на то, что он обидел свою любимую - Викторию Гончарову, она пытается ему помочь. Теперь Максим должен не делать глупостей, а попытаться сделать предложение руки и сердца еще раз. Жизнь ресторанов «Arcobaleno» и «Claude Monet» тесно переплетается, как и жизнь их влюбленных друг в друга шеф-поваров. Счастливой семейной жизнью живут Костя и Настя. Даже до сих пор живущий с мамой су-шеф Лева тоже влюбляется. В новом сезоне герои сериала порадуют новыми происшествиями, в которые они время от времени попадают: угодят под машину, упадут с палубы корабля, доведут шефа до бешенства...
Качество видео: SatRip

Продолжительность: 00:24:51
Формат: avi
Видео: DivX 5, 720x400, 1500 kbps
Аудио: русский, оригинал, MP3 2.0, 128 kbps

Код:

General
Complete name                    : D:\Video\Кухня\Kuhnja.3.01.SATRip.avi
Format                           : AVI
Format/Info                      : Audio Video Interleave
File size                        : 291 MiB
Duration                         : 24mn 51s
Overall bit rate                 : 1 638 Kbps
Writing library                  : VirtualDub build 35491/release

Video
ID                               : 0
Format                           : MPEG-4 Visual
Format settings, BVOP            : Yes
Format settings, QPel            : No
Format settings, GMC             : No warppoints
Format settings, Matrix          : Default (H.263)
Muxing mode                      : Packed bitstream
Codec ID                         : DX50
Codec ID/Hint                    : DivX 5
Duration                         : 24mn 51s
Bit rate                         : 1 500 Kbps
Width                            : 720 pixels
Height                           : 400 pixels
Display aspect ratio             : 16/9
Frame rate                       : 25.000 fps
Resolution                       : 24 bits
Colorimetry                      : 4:2:0
Scan type                        : Progressive
Bits/(Pixel*Frame)               : 0.208
Stream size                      : 267 MiB (92%)
Writing library                  : DivX 6.8.5

Audio
ID                               : 1
Format                           : MPEG Audio
Format version                   : Version 1
Format profile                   : Layer 3
Codec ID                         : 55
Codec ID/Hint                    : MP3
Duration                         : 24mn 51s
Bit rate mode                    : Constant
Bit rate                         : 128 Kbps
Channel(s)                       : 2 channels
Sampling rate                    : 48.0 KHz
Resolution                       : 16 bits
Stream size                      : 22.8 MiB (8%)
Alignment                        : Split accross interleaves
Interleave, duration             : 40 ms (1.00 video frame)
Interleave, preload duration     : 500 ms

picpicpicpicpicpicpicpicpicpicpicpicpic
Для увеличения картинки щелкните мышкой по превью

Этот торрент недоступен для скачивания без регистрации, однако доступен по публичной magnet-ссылке (источники с публичных трекеров). Перед использованием ссылки прочтите, пожалуйста Пользовательское соглашение, а также как можно дольше оставайтесь на раздаче! Для того, чтобы скачать сам торрент-файл (который видит больше источников), а также для того, чтобы поблагодарить релизера, вам необходимо зарегистрироваться. Если регистрироваться лень - вы можете также попробовать скачать релиз по нашим партнерским ссылкам ниже.

[underverse.su].t37898.torrent
Трекер: Зарегистрирован   [ 04.04.2014 01:42 ]  

Статус: проверено (by 90ytr90 at 04.04.2014 17:45)
Поблагодарили: 8 человек
Тип торрента: публичный - доступные источники с открытых трекеров: 
Размер: 5,51 GB (занимает 1,26 DVDR, для записи нужно 2 болванки DVDR/RW)
 
 
Похожие темы
Форум Тема Автор Торрент Отв. Посл. сооб.
xUSSR сериалы Кухня (3 сезон: 1-20 серии из 20) (Дмитрий Дьяченко (II)) [2014 г., Комедия, WEB-DLRip-AVC] nemos
0 | 0

1 | 2347

42

26.03.2014 16:06

vlad-120971 Пол:Муж

09-Апр-2014 03:09

Встаньте кто-нибудь на раздачу....

Яндекс.Метрика powered by Sphinx


В Н И М А Н И Е
Сайт не распространяет и не хранит электронные версии произведений, а лишь бесплатно и без коммерческой выгоды (не требуя взамен платы,
SMS и т.д.) предоставляет доступ к создаваемому пользователями каталогу ссылок на торрент-файлы, которые содержат только списки хеш-сумм.
Убедительная просьба с жалобами обращаться напрямую к пользователю, разместившему торрент файл.

Вверх