Loading...
Error

Любовь в большом городе 3 (1-8 серии из 8) (Марюс Вайсберг, Дэвид Додсон) [2014 г., комедия, приключения, фантастика, HDTVRip]

Статистика раздачи
Размер:  4,29 GB   |    Зарегистрирован:  2 года 8 месяцев   |    Скачан:  21 раз

Полного источника не было: 1 год 1 месяц

Сидов:  0  |  0 KB/s  ]   Личеров:  0  |  0 KB/s  ]

* - сиды/пиры с внешних источников

   
 
Автор Сообщение

konopic Пол:Муж

07-Мар-2014 12:36

Любовь в большом городе 3


Год выпуска: 2014
Жанр: комедия, приключения, фантастика
Страна: Россия, Украина, First Breath Films, Kvartal 95 Studio, Leopolis
Режиссер: Марюс Вайсберг, Дэвид Додсон
В ролях: Алексей Чадов, Владимир Зеленский, Светлана Ходченкова, Вера Брежнева, Вилле Хаапасало, Анастасия Задорожная, Филипп Киркоров, Шэрон Стоун, Игорь Жижикин, Екатерина Климова
Сюжет фильма:
В жизни каждого отца, рано или поздно наступает момент, когда жена улетает на заслуженный отдых, а он остается один на один с собственным ребенком. Казалось бы — ничего сложного! Также подумали Игорь, Артем и Сауна, даже не подозревая, какой «водопад» приключений накроет их с головой. Измученные «прелестями» отцовства, парни встречают своего старого приятеля Святого Валентина. Снимая стресс за бутылочкой виски, ребята в шутку мечтают о том, чтобы их дети поскорее стали взрослыми. А на утро, шокированные папаши понимают — их мечта сбылась и теперь они на собственной шкуре поймут, что значит поговорка: Большие дети — большие проблемы…
Качество видео: HDTVRip

Продолжительность: 8 x ~ 00:45:00
Формат: AVI
Видео: 720x400 (1.80:1), 25 fps, XviD build 50 ~1508 kbps avg, 0.22 bit/pixel
Аудио: 48 kHz, AC3 Dolby Digital, 2/0 (L,R) ch, ~192.00 kbps avg

Код:

Complete name : D:\ftp4\Videos\Lyubov.v.Bolshom.Gorode-3.HDTVRip.RG.Russkie.serialy.&.Files-x\Lyubov.v.Bolshom.Gorode-3.(02.seriya.iz.8).HDTVRip.RG.Russkie.serialy.&.Files-x.avi
Format : AVI
Format/Info : Audio Video Interleave
File size : 549 MiB
Duration : 43mn 28s
Overall bit rate : 1 767 Kbps
Writing application : VirtualDubMod 1.5.10.3 | www.virtualdub-fr.org || (build 2550/release)
Writing library : VirtualDubMod build 2550/release
Video
ID : 0
Format : MPEG-4 Visual
Format profile : Advanced Simple@L5
Format settings, BVOP : 1
Format settings, QPel : No
Format settings, GMC : No warppoints
Format settings, Matrix : Default (H.263)
Codec ID : XVID
Codec ID/Hint : XviD
Duration : 43mn 28s
Bit rate : 1 565 Kbps
Width : 720 pixels
Height : 400 pixels
Display aspect ratio : 16:9
Frame rate : 25.000 fps
Color space : YUV
Chroma subsampling : 4:2:0
Bit depth : 8 bits
Scan type : Progressive
Compression mode : Lossy
Bits/(Pixel*Frame) : 0.217
Stream size : 487 MiB (89%)
Writing library : XviD 1.2.1 (UTC 2008-12-04)
Audio
ID : 1
Format : AC-3
Format/Info : Audio Coding 3
Mode extension : CM (complete main)
Format settings, Endianness : Big
Codec ID : 2000
Duration : 43mn 28s
Bit rate mode : Constant
Bit rate : 192 Kbps
Channel(s) : 2 channels
Channel positions : Front: L R
Sampling rate : 48.0 KHz
Bit depth : 16 bits
Compression mode : Lossy
Stream size : 59.7 MiB (11%)
Alignment : Split accross interleaves
Interleave, duration : 40 ms (1.00 video frame)
Interleave, preload duration : 500 ms
picpicpicpic
Для увеличения картинки щелкните мышкой по превью

Этот торрент недоступен для скачивания без регистрации, однако доступен по публичной magnet-ссылке (источники с публичных трекеров). Перед использованием ссылки прочтите, пожалуйста Пользовательское соглашение, а также как можно дольше оставайтесь на раздаче! Для того, чтобы скачать сам торрент-файл (который видит больше источников), а также для того, чтобы поблагодарить релизера, вам необходимо зарегистрироваться. Если регистрироваться лень - вы можете также попробовать скачать релиз по нашим партнерским ссылкам ниже.

[underverse.su].t36996.torrent
Трекер: Зарегистрирован   [ 07.03.2014 12:36 ]  

Статус: проверено (by garry at 08.03.2014 03:39)
Поблагодарили: 1 человек
Тип торрента: публичный - доступные источники с открытых трекеров: 
Размер: 4,29 GB (занимает 0,98 DVDR, для записи нужно 1 болванка DVDR/RW)
 
 
Похожие темы
Форум Тема Автор Торрент Отв. Посл. сооб.
T Зарубежное кино [DVDRip, Low-Res HDRip, и т.д.] Любовь в бегах / Love on the Run (Эш Кристиан) [2016 г., комедия, WEB-DLRip] MVO makkol
140 | 5

0 | 482

7

06.10.2016 21:54

Наше кино [DVDRip, Low-Res HDRip, и т.д.] Любовь в большом городе (Марюс Вайсберг) [2009г., Романтическая комедия, DVDRip ] [М@ЛЬВИН@]
0 | 0

6 | 2593

91

07.06.2010 12:36

Наше кино [DVDRip, Low-Res HDRip, и т.д.] Любовь в большом городе 2 (Марюс Вайсберг) [2010 г., комедия, DVDRip] puzzikat
0 | 0

6 | 1900

91

02.03.2011 09:24

Наше кино [DVDRip, Low-Res HDRip, и т.д.] Любовь в большом городе 3 (Марюс Вайсберг, Дэвид Додсон) [2013 г., Комедия, DVDRip] Су-34
5 | 0

1 | 1086

193

24.01.2014 16:24

Наше кино [DVDRip, Low-Res HDRip, и т.д.] Любовь в большом городе 3 (Марюс Вайсберг, Дэвид Додсон) [2014 г., Комедия, DVDRip] vester78
0 | 0

0 | 676

21

25.01.2014 06:53

* Наше кино [DVD / HDDVD / BD / Remux] Любовь в большом городе 2 (Марюс Вайсберг) [2010 г., фэнтези, мелодрама, комедия, Blu-ray 1080p] uzi2009

0 | 555

29.04.2014 10:20

* Наше кино [DVD / HDDVD / BD / Remux] Любовь в большом городе (Марюс Вайсберг) [2009 г., Романтическая комедия, Blu-Ray 1080p] uzi2009

0 | 545

29.04.2014 10:33

Архив Любовь в большом городе (Марюс Вайсберг) [2009 г., комедия, DVDRip] elifer
0 | 0

1 | 946

31

12.11.2010 23:48

Архив Любовь в большом городе 2 (Марюс Вайсберг) [2010 г., комедия, DVD-9] andrej-ku
0 | 0

2 | 1138

4

16.06.2011 08:09

* Архив Любовь в большом городе (Марюс Вайсберг) [2009 г., комедия, BDRip 720p] Zver-Mix

1 | 894

30.08.2010 01:30


Яндекс.Метрика powered by Sphinx


В Н И М А Н И Е
Сайт не распространяет и не хранит электронные версии произведений, а лишь бесплатно и без коммерческой выгоды (не требуя взамен платы,
SMS и т.д.) предоставляет доступ к создаваемому пользователями каталогу ссылок на торрент-файлы, которые содержат только списки хеш-сумм.
Убедительная просьба с жалобами обращаться напрямую к пользователю, разместившему торрент файл.

Вверх