Loading...
Error

Любовница / Mistress (Барри Праймус / Barry Primus) [1992 г., драма, комедия, DVDRip] DVO + Original

Статистика раздачи
Размер:  1,37 GB   |    Зарегистрирован:  2 года 9 месяцев   |    Скачан:  6 раз

Полного источника не было: 1 год

Сидов:  0  |  0 KB/s  ]   Личеров:  0  |  0 KB/s  ]

* - сиды/пиры с внешних источников

   
 
Автор Сообщение

garry Пол:Муж

06-Мар-2014 06:37

Любовница / Mistress


Год выпуска: 1992
Жанр: драма, комедия
Страна: США
Режиссер: Барри Праймус / Barry Primus
В ролях: Роберт Де Ниро, Дэнни Айелло, Роберт Вул, Мартин Ландау, Лори Меткаф, Эли Уоллах, Шерил Ли Ральф, Джин Смарт, Тьюзди Найт, Васек Симек
Сюжет фильма:
Сценарист-неудачник Марвин Лэндисман и разорившийся продюсер Джек Рот решают в очередной раз попытать удачу и снять хитовый фильм, который принес бы им неплохую прибыль. Вот только средств для осуществления этой задумки у них маловато. Тогда Джеку приходит в голову отличная идея, и вскоре незадачливые киношники находят себе спонсора, в лице пожилого богача, а заодно и главную героиню, в лице его любовницы, которой стоит только щелкнуть пальчиком, и стареющий Дон Жуан выполнит любое ее желание, и уж тем более самое главное — стать звездой…

  • Мировая премьера: 29 апреля 1992

/
Качество видео: DVDRip

Продолжительность: 01:45:03
Формат: AVI
Видео: XviD, 640x480, 1595 kbps
Аудио #1: русский, двухголосый закадровый [профессиональный], MP3 2.0, 128 kbps
Аудио #2: английский, оригинал, MP3 2.0, 128 kbps

Код:

General
Complete name                            : D:\Downloads\Любовница (Mistress).avi
Format                                   : AVI
Format/Info                              : Audio Video Interleave
File size                                : 1.37 GiB
Duration                                 : 1h 45mn
Overall bit rate                         : 1 867 Kbps
Writing application                      : FairUse Wizard - http://fairusewizard.com
Writing library                          : The best and REALLY easy backup tool

Video
ID                                       : 0
Format                                   : MPEG-4 Visual
Format profile                           : Simple@L3
Format settings, BVOP                    : No
Format settings, QPel                    : No
Format settings, GMC                     : No warppoints
Format settings, Matrix                  : Default (H.263)
Codec ID                                 : XVID
Codec ID/Hint                            : XviD
Duration                                 : 1h 45mn
Bit rate                                 : 1 597 Kbps
Width                                    : 640 pixels
Height                                   : 480 pixels
Display aspect ratio                     : 4:3
Frame rate                               : 25.000 fps
Color space                              : YUV
Chroma subsampling                       : 4:2:0
Bit depth                                : 8 bits
Scan type                                : Progressive
Compression mode                         : Lossy
Bits/(Pixel*Frame)                       : 0.208
Stream size                              : 1.17 GiB (86%)
Writing library                          : XviD 1.2.0SMP (UTC 2006-01-08)

Audio #1
ID                                       : 1
Format                                   : MPEG Audio
Format version                           : Version 1
Format profile                           : Layer 3
Mode                                     : Joint stereo
Mode extension                           : MS Stereo
Codec ID                                 : 55
Codec ID/Hint                            : MP3
Duration                                 : 1h 45mn
Bit rate mode                            : Constant
Bit rate                                 : 128 Kbps
Channel(s)                               : 2 channels
Sampling rate                            : 48.0 KHz
Compression mode                         : Lossy
Stream size                              : 96.2 MiB (7%)
Alignment                                : Aligned on interleaves
Interleave, duration                     : 40 ms (1.00 video frame)
Interleave, preload duration             : 504 ms
Writing library                          : LAME3.97b
Encoding settings                        : -m j -V 4 -q 2 -lowpass 17 -b 128

Audio #2
ID                                       : 2
Format                                   : MPEG Audio
Format version                           : Version 1
Format profile                           : Layer 3
Mode                                     : Joint stereo
Mode extension                           : MS Stereo
Codec ID                                 : 55
Codec ID/Hint                            : MP3
Duration                                 : 1h 45mn
Bit rate mode                            : Constant
Bit rate                                 : 128 Kbps
Channel(s)                               : 2 channels
Sampling rate                            : 48.0 KHz
Compression mode                         : Lossy
Stream size                              : 96.2 MiB (7%)
Alignment                                : Aligned on interleaves
Interleave, duration                     : 40 ms (1.00 video frame)
Interleave, preload duration             : 504 ms
Writing library                          : LAME3.97b
Encoding settings                        : -m j -V 4 -q 2 -lowpass 17 -b 128
Релиз: Lysiferchik

pic pic pic
Для увеличения картинки щелкните мышкой по превью

Этот торрент недоступен для скачивания без регистрации, однако доступен по публичной magnet-ссылке (источники с публичных трекеров). Перед использованием ссылки прочтите, пожалуйста Пользовательское соглашение, а также как можно дольше оставайтесь на раздаче! Для того, чтобы скачать сам торрент-файл (который видит больше источников), а также для того, чтобы поблагодарить релизера, вам необходимо зарегистрироваться. Если регистрироваться лень - вы можете также попробовать скачать релиз по нашим партнерским ссылкам ниже.

[underverse.su].t36932.torrent
Трекер: Зарегистрирован   [ 06.03.2014 06:37 ]  

Статус: проверено (by garry at 06.03.2014 08:40)
Поблагодарили: 1 человек
Тип торрента: публичный - доступные источники с открытых трекеров: 
Размер: 1,37 GB (занимает 0,31 DVDR, для записи нужно 1 болванка DVDR/RW)
 
 
Похожие темы
Форум Тема Автор Торрент Отв. Посл. сооб.
* Зарубежное кино [DVD / HDDVD / BD / Remux] Любовница / Mistress (Барри Праймус / Barry Primus) [1992 г., драма, комедия, DVD5 (Custom)] AVO + Original + DVO garry

0 | 589

22.01.2014 07:36

Зарубежное кино [HDDVDRip / BDRip / WEB-DL / HDTV 1080/720р] Любовница / Mistress (Барри Праймус / Barry Primus) [1992 г., драма, комедия, WEB-DL 720p] AVO + DVO + Original garry
1 | 0

0 | 1313

5

06.03.2014 06:25


Яндекс.Метрика powered by Sphinx


В Н И М А Н И Е
Сайт не распространяет и не хранит электронные версии произведений, а лишь бесплатно и без коммерческой выгоды (не требуя взамен платы,
SMS и т.д.) предоставляет доступ к создаваемому пользователями каталогу ссылок на торрент-файлы, которые содержат только списки хеш-сумм.
Убедительная просьба с жалобами обращаться напрямую к пользователю, разместившему торрент файл.

Вверх