Loading...
Error

Пресс-конференция Путина 4 марта 2014 г [2014 г., документальный, TVRip]

Статистика раздачи
Размер:  826 MB   |    Зарегистрирован:  2 года 9 месяцев   |    Скачан:  10 раз

Полного источника не было: 1 год 6 месяцев

Сидов:  0  |  0 KB/s  ]   Личеров:  0  |  0 KB/s  ]

* - сиды/пиры с внешних источников

   
 
Автор Сообщение

матроскин Пол:Муж

05-Мар-2014 09:42

Пресс-конференция Путина 4 марта 2014 г


Год выпуска: 2014
Жанр: документальный
Страна: Россия
Выпущено: Телеканал RT
Сюжет фильма:
На пресс-конференции 4 марта 2014г в Ново-Огарево президент Владимир Путин изложил свое видение ситуации на Украине, и, в частности, в Крыму, обозначив, что на Украине произошел Государственный переворот.
Качество видео: TVRip

Продолжительность: 01:04:59
Формат: avi
Видео: DivX 4, 640x360, 1508 kbps
Аудио: русский, оригинал, MP3 2.0, 256 kbps

Код:

General
Complete name                    : C:\Users\Security\Desktop\Встреча Владимира Путина с прессой по Украине (2).avi
Format                           : AVI
Format/Info                      : Audio Video Interleave
File size                        : 826 MiB
Duration                         : 1h 4mn
Overall bit rate                 : 1 777 Kbps
Writing application              : Lavf52.93.0

Video
ID                               : 0
Format                           : MPEG-4 Visual
Format profile                   : Simple@L1
Format settings, BVOP            : No
Format settings, QPel            : No
Format settings, GMC             : No warppoints
Format settings, Matrix          : Default (H.263)
Codec ID                         : DIVX
Codec ID/Info                    : Project Mayo
Codec ID/Hint                    : DivX 4
Duration                         : 1h 4mn
Bit rate                         : 1 508 Kbps
Width                            : 640 pixels
Height                           : 360 pixels
Display aspect ratio             : 16/9
Frame rate                       : 30.000 fps
Resolution                       : 24 bits
Colorimetry                      : 4:2:0
Scan type                        : Progressive
Bits/(Pixel*Frame)               : 0.218
Stream size                      : 701 MiB (85%)
Writing library                  : Lavc52.108.0

Audio
ID                               : 1
Format                           : MPEG Audio
Format version                   : Version 1
Format profile                   : Layer 3
Codec ID                         : 55
Codec ID/Hint                    : MP3
Duration                         : 1h 4mn
Bit rate mode                    : Constant
Bit rate                         : 256 Kbps
Channel(s)                       : 2 channels
Sampling rate                    : 44.1 KHz
Resolution                       : 16 bits
Stream size                      : 119 MiB (14%)
Alignment                        : Aligned on interleaves
Interleave, duration             : 26 ms (0.78 video frame)
Writing library                  : LAME3.98.4

picpicpicpicpicpic
Для увеличения картинки щелкните мышкой по превью

Этот торрент недоступен для скачивания без регистрации, однако доступен по публичной magnet-ссылке (источники с публичных трекеров). Перед использованием ссылки прочтите, пожалуйста Пользовательское соглашение, а также как можно дольше оставайтесь на раздаче! Для того, чтобы скачать сам торрент-файл (который видит больше источников), а также для того, чтобы поблагодарить релизера, вам необходимо зарегистрироваться. Если регистрироваться лень - вы можете также попробовать скачать релиз по нашим партнерским ссылкам ниже.

[underverse.su].t36883.torrent
Трекер: Зарегистрирован   [ 05.03.2014 09:42 ]  

Статус: проверено (by матроскин at 05.03.2014 09:43)
Поблагодарили: 1 человек
Тип торрента: публичный - доступные источники с открытых трекеров: 
Размер: 826 MB (занимает 0,18 DVDR, для записи нужно 1 болванка DVDR/RW)
 
 
Похожие темы
Форум Тема Автор Торрент Отв. Посл. сооб.
Информационно-аналитические передачи Пресс-конференция КПРФ [2013 г., документальный, HDTVRip] матроскин
1 | 0

3 | 812

0

01.04.2013 19:36

Информационно-аналитические передачи Пресс-конференция [2013 г., документальный, TVRip] матроскин
1 | 0

1 | 586

0

27.04.2013 06:19

Другие фильмы Пресс-конференция Януковича В.Ф. [2014 г., документальный, TVRip] матроскин
1 | 0

5 | 1413

8

02.03.2014 09:32

матроскин Пол:Муж

05-Мар-2014 09:52





добавлено спустя 4 минуты 10 секунд:

Депутаты Госдумы РФ требуют проверить деятельность МосКомПриватБанка на предмет финансирования террористических организаций на Украине





Как сообщил сегодня заместитель Председателя ЦК КПРФ Валерий Рашкин, депутаты фракции КПРФ инициировали обращение в Генеральную Прокуратуру России в связи с возможной причастностью владельцев МосКомПриватБанка к финансированию радикальных организаций на Украине.

Пресс-служба МГК КПРФ
2014-03-04 15:43

Информация о том, что один из владельцев данного банка Игорь Коломойский является спонсором действующей на Украине радикальной организации «Правый сектор», подтверждается российскими и украинскими СМИ. «Правый сектор» должен быть признан в России террористической организацией. Недопустимо, чтобы деятельность украинских «бандеровцев» и нацистов финансировалась за счет доходов, которые украинские банкиры получают в России. А это более чем возможно, учитывая деятельность Игоря Коломойского, спонсирующего украинских нацистов», - прокомментировал данное обращение Валерий Рашкин.

Еще один автор запроса в прокуратуру депутат Анатолий Локоть сообщил о том, что информация о возможном участии владельца МосКомПриватБанка Игоря Коломойского в финансировании радикальных организаций на Украине, как минимум, требует проверки на предмет соответствия российскому законодательству. «Недопустима ситуация, при которой люди, позиционирующие себя как открытые враги России, ведут в нашей стране коммерческую деятельность и извлекают доходы, мы будем требовать самого серьезного расследования деятельности бизнес-структур «евробандеровцев» в России», - прокомментировал Анатолий Локоть.






Яндекс.Метрика powered by Sphinx


В Н И М А Н И Е
Сайт не распространяет и не хранит электронные версии произведений, а лишь бесплатно и без коммерческой выгоды (не требуя взамен платы,
SMS и т.д.) предоставляет доступ к создаваемому пользователями каталогу ссылок на торрент-файлы, которые содержат только списки хеш-сумм.
Убедительная просьба с жалобами обращаться напрямую к пользователю, разместившему торрент файл.

Вверх