Loading...
Error

Я, Франкенштейн / I, Frankenstein (Стюарт Битти) [2013 г., фэнтези, боевик, приключения, BDRip] Dub HQ Underverse

Статистика раздачи
Размер:  1,46 GB   |    Зарегистрирован:  2 года 8 месяцев   |    Скачан:  141 раз

Полного источника не было: 1 месяц 10 дней

Сидов:  0  |  0 KB/s  ]   Личеров:  0  |  0 KB/s  ]

* - сиды/пиры с внешних источников

   
 
Автор Сообщение

HQ Underverse 

04-Мар-2014 09:36

Я, Франкенштейн / I, Frankenstein


Год выпуска: 2013
Жанр: фэнтези, боевик, приключения
Страна: США
Режиссер: Стюарт Битти
В ролях: Аарон Экхарт, Ивонн Страховски, Миранда Отто, Билл Найи, Джай Кортни, Сократис Отто, Аден Янг, Кэйтлин Стэйси, Махеш Джаду, Стив Музакис
Сюжет фильма:
Он — монстр. Он — двухсотлетний плод безумной фантазии своего создателя. Он — легенда. Мир, в котором он живет, населен древними горгульями и бессмертными демонами, которые сражаются за обладание человечеством. Величественные соборы скрывают огромные арсеналы, за дверьми научных лабораторий проводятся эксперименты по воскрешению мертвых. Война двух кланов могущественных существ достигает своего пика. И только он, Адам, монстр Франкенштейна, в силах ее остановить.

  • Мировая премьера: 20 января 2014
  • Российская премьера: 23 января 2014, «Двадцатый Век Фокс СНГ», «A Company» 3D

|
Качество видео: BDRip

Продолжительность: 01:32:58
Формат: avi
Видео: XviD, 720x304, 1798 kbps
Аудио: русский, дублированный [лицензия], AC3 5.1, 448 kbps

Код:

General
Complete name                    : Z:\windoza-share\Я Франкенштейн\I.Frankenstein.2014.BDRip.XviD.AC3.Rus.D.HQ.Underverse.avi
Format                           : AVI
Format/Info                      : Audio Video Interleave
File size                        : 1.46 GiB
Duration                         : 1h 32mn
Overall bit rate                 : 2 256 Kbps
Writing application              : VirtualDubMod 1.5.10.2 (build 2540/release)
Writing library                  : VirtualDubMod build 2540/release

Video
ID                               : 0
Format                           : MPEG-4 Visual
Format profile                   : Streaming Video@L1
Format settings, BVOP            : Yes
Format settings, QPel            : No
Format settings, GMC             : No warppoints
Format settings, Matrix          : Custom
Muxing mode                      : Packed bitstream
Codec ID                         : XVID
Codec ID/Hint                    : XviD
Duration                         : 1h 32mn
Bit rate                         : 1 798 Kbps
Width                            : 720 pixels
Height                           : 304 pixels
Display aspect ratio             : 2.35
Frame rate                       : 24.000 fps
Resolution                       : 24 bits
Colorimetry                      : 4:2:0
Scan type                        : Progressive
Bits/(Pixel*Frame)               : 0.342
Stream size                      : 1.17 GiB (80%)
Writing library                  : XviD 64

Audio
ID                               : 1
Format                           : AC-3
Format/Info                      : Audio Coding 3
Codec ID                         : 2000
Duration                         : 1h 32mn
Bit rate mode                    : Constant
Bit rate                         : 448 Kbps
Channel(s)                       : 6 channels
Channel positions                : Front: L C R, Surround: L R, LFE
Sampling rate                    : 48.0 KHz
Video delay                      : 24ms
Stream size                      : 298 MiB (20%)
Alignment                        : Split accross interleaves
Interleave, duration             : 42 ms (1.00 video frame)
Interleave, preload duration     : 500 ms

Релиз группы:

picpicpic
Для увеличения картинки щелкните мышкой по превью


P.S. субтитров и оригинально дорожки в нормальном качестве пока нет, по запросам буду выкладывать по мере появления.

Этот торрент недоступен для скачивания без регистрации, однако доступен по публичной magnet-ссылке (источники с публичных трекеров). Перед использованием ссылки прочтите, пожалуйста Пользовательское соглашение, а также как можно дольше оставайтесь на раздаче! Для того, чтобы скачать сам торрент-файл (который видит больше источников), а также для того, чтобы поблагодарить релизера, вам необходимо зарегистрироваться. Если регистрироваться лень - вы можете также попробовать скачать релиз по нашим партнерским ссылкам ниже.

[underverse.su].t36841.torrent
Трекер: Зарегистрирован   [ 04.03.2014 09:36 ]  

Статус: проверено (by HQ Underverse at 04.03.2014 09:36)
Поблагодарили: 8 человек
Тип торрента: публичный - доступные источники с открытых трекеров: 
Размер: 1,46 GB (занимает 0,33 DVDR, для записи нужно 1 болванка DVDR/RW)
 
 
Похожие темы
Форум Тема Автор Торрент Отв. Посл. сооб.
Зарубежное кино [DVDRip, Low-Res HDRip, и т.д.] Я, Франкенштейн / I, Frankenstein (Стюарт Битти) [2014 г., фэнтези, боевик, приключения, BDRip] Dub [лицензия] Паукан
8 | 0

0 | 2040

166

28.02.2014 22:01

Зарубежное кино [DVDRip, Low-Res HDRip, и т.д.] Я, Франкенштейн / I, Frankenstein (Стюарт Битти / Stuart Beattie) [2014 г., фэнтези, боевик, приключения, BDRip-AVC] Dub 90ytr90
0 | 0

0 | 1740

34

01.03.2014 07:19

Зарубежное кино [DVDRip, Low-Res HDRip, и т.д.] Я, Франкенштейн / I, Frankenstein (Стюарт Битти / Stuart Beattie) [2014 г., фэнтези, боевик, приключения, BDRip-AVC] Dub 90ytr90
33 | 1

0 | 2483

19

06.05.2014 18:47

Зарубежное кино [DVD / HDDVD / BD / Remux] Я, Франкенштейн / I, Frankenstein (Стюарт Битти) [2014 г., фэнтези, боевик, приключения, BD-Remux] Dub [лицензия] nemos
0 | 0

1 | 1662

30

08.04.2014 10:38

Зарубежное кино [DVD / HDDVD / BD / Remux] Я, Франкенштейн / I, Frankenstein (Стюарт Битти / Stuart Beattie) [2013, США, Австралия, фэнтези, боевик, приключения, Blu-ray disc] Dub uzi2009
1 | 0

0 | 528

8

13.03.2014 20:18

Зарубежное кино [HDDVDRip / BDRip / WEB-DL / HDTV 1080/720р] Я, Франкенштейн / I, Frankenstein (Стюарт Битти / Stuart Beattie) [2014 г., фэнтези, боевик, приключения, BDRip 720p] Dub 90ytr90
3 | 0

0 | 1533

75

01.03.2014 07:27


Яндекс.Метрика powered by Sphinx


В Н И М А Н И Е
Сайт не распространяет и не хранит электронные версии произведений, а лишь бесплатно и без коммерческой выгоды (не требуя взамен платы,
SMS и т.д.) предоставляет доступ к создаваемому пользователями каталогу ссылок на торрент-файлы, которые содержат только списки хеш-сумм.
Убедительная просьба с жалобами обращаться напрямую к пользователю, разместившему торрент файл.

Вверх