Loading...
Error

Мама в законе / 1-4 серии из 4 (Михаил Вассербаум) [2014 г., Криминал, Мелодрама, SatRip]

Статистика раздачи
Размер:  2,38 GB   |    Зарегистрирован:  2 года 9 месяцев   |    Скачан:  11 раз

Полного источника не было: 9 месяцев

Сидов:  0  |  0 KB/s  ]   Личеров:  0  |  0 KB/s  ]

* - сиды/пиры с внешних источников

   
 
Автор Сообщение

nemos Пол:Муж

03-Мар-2014 12:49


Год выпуска: 2014
Жанр: Криминал, Мелодрама
Страна: Россия
Режиссер: Михаил Вассербаум
В ролях: Виктория Тарасова, Андрей Стоянов, Андрей Чернышов, Екатерина Семёнова, Саша Дробитько, Роман Агеев, Наталья Унгард
Качество видео: SatRip

Продолжительность: 02:55:00 (4 серии одним файлом)
Формат: AVI
Видео: XviD, 720x448, 1800 kbps
Аудио: русский, MP3 2.0, 128 kbps

Светлана выходит из мест заключения и ищет своего сына Алекса, определенного в детдом органами опеки. Используя криминальные связи, она узнает, что мальчик усыновлен и проживает в семье генерала Терентьева. Она устраивается гувернанткой в дом генерала. Но видя, как Алекса любят в семье, Светлана не решается признаться ребенку, что она – его мать. Узнав о готовящемся на генерала покушении, она его предупреждает. В благодарность Терентьев дает Светлане возможность поговорить с сыном по душам и открыть ему тайну. Но Светлана не решается нарушить устоявшуюся жизнь Алекса. Она уезжает в другой город.

Код:

D:\Фильмы (роздача)\Мама_в_законе_2014.avi
   General
      Complete name : D:\Фильмы (роздача)\Мама_в_законе_2014.avi
      Format : AVI
      Format/Info : Audio Video Interleave
      Format profile : OpenDML
      File size : 2.38 GiB
      Duration : 2h 55mn
      Overall bit rate : 1 940 Kbps
      Writing library : VirtualDub build 32706/release
   Video #0
      ID : 0
      Format : MPEG-4 Visual
      Format profile : Advanced Simple@L5
      Format settings, BVOP : 2
      Format settings, QPel : No
      Format settings, GMC : No warppoints
      Format settings, Matrix : Default (MPEG)
      Codec ID : XVID
      Codec ID/Hint : XviD
      Duration : 2h 55mn
      Bit rate : 1 800 Kbps
      Width : 720 pixels
      Height : 448 pixels
      Display aspect ratio : 1.607
      Frame rate : 25.000 fps
      Color space : YUV
      Chroma subsampling : 4:2:0
      Bit depth : 8 bits
      Scan type : Progressive
      Compression mode : Lossy
      Bits/(Pixel*Frame) : 0.223
      Stream size : 2.21 GiB (93%)
      Writing library : XviD 1.2.1 (UTC 2008-12-04)
   Audio #1
      ID : 1
      Format : MPEG Audio
      Format version : Version 1
      Format profile : Layer 3
      Mode : Joint stereo
      Mode extension : MS Stereo
      Codec ID : 55
      Codec ID/Hint : MP3
      Duration : 2h 55mn
      Bit rate mode : Constant
      Bit rate : 128 Kbps
      Channel(s) : 2 channels
      Sampling rate : 48.0 KHz
      Compression mode : Lossy
      Stream size : 161 MiB (7%)
      Alignment : Split accross interleaves
      Interleave, duration : 40 ms (1.00 video frame)
      Interleave, preload duration : 500 ms
Семпл: http://multi-up.com/955831

picpicpicpicpicpicpicpicpicpic
Для увеличения картинки щелкните мышкой по превью

Этот торрент недоступен для скачивания без регистрации, однако доступен по публичной magnet-ссылке (источники с публичных трекеров). Перед использованием ссылки прочтите, пожалуйста Пользовательское соглашение, а также как можно дольше оставайтесь на раздаче! Для того, чтобы скачать сам торрент-файл (который видит больше источников), а также для того, чтобы поблагодарить релизера, вам необходимо зарегистрироваться. Если регистрироваться лень - вы можете также попробовать скачать релиз по нашим партнерским ссылкам ниже.

[underverse.su].t36823.torrent
Трекер: Зарегистрирован   [ 03.03.2014 12:49 ]  

Статус: проверено (by 90ytr90 at 04.03.2014 16:32)
Поблагодарили: 2 человека
Тип торрента: публичный - доступные источники с открытых трекеров: 
Размер: 2,38 GB (занимает 0,54 DVDR, для записи нужно 1 болванка DVDR/RW)
 
 

nemos Пол:Муж

03-Мар-2014 19:34

Фильм 4 серии одним файлом

Яндекс.Метрика powered by Sphinx


В Н И М А Н И Е
Сайт не распространяет и не хранит электронные версии произведений, а лишь бесплатно и без коммерческой выгоды (не требуя взамен платы,
SMS и т.д.) предоставляет доступ к создаваемому пользователями каталогу ссылок на торрент-файлы, которые содержат только списки хеш-сумм.
Убедительная просьба с жалобами обращаться напрямую к пользователю, разместившему торрент файл.

Вверх