Loading...
Error

Вий (Олег Степченко) [2013 г., фэнтези, триллер, приключения, DVDRip]

Статистика раздачи
Размер:  1,46 GB   |    Зарегистрирован:  2 года 9 месяцев   |    Скачан:  39 раз

Полного источника не было: 10 месяцев

Сидов:  0  |  0 KB/s  ]   Личеров:  0  |  0 KB/s  ]

* - сиды/пиры с внешних источников

   
 
Автор Сообщение

geomolot Пол:Муж

02-Мар-2014 13:55

Вий


Год выпуска: 2013
Жанр: фэнтези, триллер, приключения
Страна: Россия , Великобритания , Украина , Чехия
Режиссер: Олег Степченко
В ролях: Джейсон Флеминг, Андрей Смоляков, Алексей Чадов, Александр Яковлев, Игорь Жижикин, Агния Дитковските, Ольга Зайцева, Валерий Золотухин, Виктор Бычков, Юрий Цурило
Сюжет фильма:
Начало XVIII века. Картограф Джонатан Грин совершает научное путешествие из Европы на Восток. Проследовав через Трансильванию и преодолев Карпатские горы, он попадает в затерянную среди непроходимых лесов деревушку. Только воля случая и густой туман могли занести его в это проклятое место. Народ, живущий здесь, не похож ни на один доселе виданный путешественником. Эти люди, оградив себя от остального мира глубоким рвом, наивно верят, что смогут уберечься от нечисти, не понимая, что она уже давно поселилась в их душах и только ждёт случая, чтобы вырваться наружу. Даже в страшном сне учёный-материалист не предполагал, что здесь ему уготована встреча с верным слугой дьявола.

  • Мировая премьера: 30 января 2014
  • Российская премьера: 30 января 2014, «UPI» 3D

Качество видео: DVDRip

Продолжительность: 02:04:53
Формат: AVI
Видео: XviD, 720x400, 2050kbps
Аудио: русский, не требуется, AC3 5.1, 448kbps

Код:

Общее
Полное имя : Viy.2013.O.DVDRip_[New-Team]_by_avproh.avi
Формат : AVI
Формат/Информация : Audio Video Interleave
Профиль формата : OpenDML
Размер файла : 1,46 Гбайт
Продолжительность : 2 ч. 4 м.
Общий поток : 2510 Кбит/сек
Программа кодирования : VirtualDubMod 1.5.10.3 | www.virtualdub-fr.org || (build 2550/release)
Библиотека кодирования : VirtualDubMod build 2550/release

Видео
Идентификатор : 0
Формат : MPEG-4 Visual
Профиль формата : Advanced Simple@L5
Параметр BVOP формата : 1
Параметр QPel формата : Нет
Параметр GMC формата : Без точки перехода
Параметр матрицы формата : Выборочная
Идентификатор кодека : XVID
Идентификатор кодека/Подсказка : XviD
Продолжительность : 2 ч. 4 м.
Битрейт : 2050 Кбит/сек
Ширина : 720 пикселей
Высота : 400 пикселей
Соотношение сторон : 16:9
Частота кадров : 25,000 кадров/сек
Цветовое пространство : YUV
Субдискретизация насыщенности : 4:2:0
Битовая глубина : 8 бит
Тип развёртки : Прогрессивная
Метод сжатия : С потерями
Бит/(Пиксели*Кадры) : 0.285
Размер потока : 1,79 Гбайт (82%)
Библиотека кодирования : XviD 73

Аудио
Идентификатор : 1
Формат : AC-3
Формат/Информация : Audio Coding 3
Расширение режима : CM (complete main)
Параметр Endianness формата : Big
Идентификатор кодека : 2000
Продолжительность : 2 ч. 4 м.
Вид битрейта : Постоянный
Битрейт : 448 Кбит/сек
Каналы : 6 каналов
Расположение каналов : Front: L C R, Side: L R, LFE
Частота : 48,0 КГц
Битовая глубина : 16 бит
Метод сжатия : С потерями
Размер потока : 400 Мбайт (18%)
Выравнивание : Разделение по промежуткам
Продолжительность промежутка : 40 мс. (1,00 видеокадр)
Время предзагрузки промежутка : 500 мс.
picpicpicpic
Для увеличения картинки щелкните мышкой по превью

Этот торрент недоступен для скачивания без регистрации, однако доступен по публичной magnet-ссылке (источники с публичных трекеров). Перед использованием ссылки прочтите, пожалуйста Пользовательское соглашение, а также как можно дольше оставайтесь на раздаче! Для того, чтобы скачать сам торрент-файл (который видит больше источников), а также для того, чтобы поблагодарить релизера, вам необходимо зарегистрироваться. Если регистрироваться лень - вы можете также попробовать скачать релиз по нашим партнерским ссылкам ниже.

[underverse.su].t36800.torrent
Трекер: Зарегистрирован   [ 02.03.2014 13:55 ]  

Статус: проверено (by 90ytr90 at 05.04.2014 20:21)
Поблагодарили: 3 человека
Тип торрента: публичный - доступные источники с открытых трекеров: 
Размер: 1,46 GB (занимает 0,33 DVDR, для записи нужно 1 болванка DVDR/RW)
 
 
Похожие темы
Форум Тема Автор Торрент Отв. Посл. сооб.
Наше кино [DVDRip, Low-Res HDRip, и т.д.] Вий (Олег Степченко) [2013 г., фэнтези, триллер, приключения, WEBRip] nemos
1 | 0

0 | 861

88

21.02.2014 17:59

Наше кино [DVDRip, Low-Res HDRip, и т.д.] Вий (Олег Степченко) [2013 г., Фэнтези, триллер, приключения, HDRip] WeaSel
0 | 0

0 | 1163

49

15.03.2014 07:51

Наше кино HQ Вий (Олег Степченко) [2013 г., фэнтези, триллер, приключения, BDRip] HQ Underverse HQ Underverse
0 | 0

0 | 1900

159

19.03.2014 07:55

Наше кино [DVD / HDDVD / BD / Remux] Вий (Олег Степченко) [2013, Россия, Украина, Германия, Великобритания, Чехия, Фэнтези, триллер, приключения, BDRemux 1080p] uzi2009
4 | 1

2 | 1686

20

04.07.2014 12:36

Наше кино [HDDVDRip / BDRip / WEB-DL / HDTV 1080/720р] Вий (Олег Степченко) [2013 г., Фэнтези, триллер, приключения, WEB-DL 720p] nemos
9 | 0

1 | 2084

397

23.02.2014 17:48



Последний раз редактировалось: geomolot (03.03.2014 15:33), всего редактировалось 2 раз(а)

90ytr90 

02-Мар-2014 16:14

Тех. данные не соответствуют действительности.

geomolot Пол:Муж

02-Мар-2014 17:55

А что именно?

Паукан Пол:Муж

02-Мар-2014 21:01

geomolot
Дорога здесь AC3 5.1 а не АС3 2.0, на первый раз исправлю (это если сравнивать медиа инфо и описание).

Но есть еще один неприятный казус - раздается совсем не тот релиз, что указан в описании. Даже по размеру.

Размер файла : 2,19 Гбайт
Размер: 1,46 GB

где правда?

03-Мар-2014 03:47

Топик был перенесен из форума Наше кино [DVDRip, Low-Res HDRip, и т.д.] в форум Отстойник


gari
 

05-Апр-2014 20:23

Топик был перенесен из форума Отстойник в форум Наше кино [DVDRip, Low-Res HDRip, и т.д.]

Причина переноса: Исправлено
90ytr90
 

Яндекс.Метрика powered by Sphinx


В Н И М А Н И Е
Сайт не распространяет и не хранит электронные версии произведений, а лишь бесплатно и без коммерческой выгоды (не требуя взамен платы,
SMS и т.д.) предоставляет доступ к создаваемому пользователями каталогу ссылок на торрент-файлы, которые содержат только списки хеш-сумм.
Убедительная просьба с жалобами обращаться напрямую к пользователю, разместившему торрент файл.

Вверх