Loading...
Error

Позывной "Стая" / Серии: 01-08 из 8 (Андрей Щербинин) [2013 г., боевик, DVDRip] Dub

Статистика раздачи
Размер:  3,76 GB   |    Зарегистрирован:  3 года 4 месяца   |    Скачан:  24 раза
Сидов:  1  |  0 KB/s  ]   Личеров:  0  |  0 KB/s  ]

* - сиды/пиры с внешних источников

   
 
Автор Сообщение

Паукан Пол:Муж

28-Фев-2014 15:49

Позывной "Стая" / Серии: 01-08 из 8


Страна: Россия
Производство: Кинокомпания ВГТРК
Жанр: Боевик
Год выпуска: 2013

Продолжительность: 8 x ~ 00:45:00
Язык: Русский
Режиссер: Андрей Щербинин
В ролях: Евгений Сидихин, Сергей Воробьёв, Петр Логачев, Полина Сидихина, Юрий Уткин, Руслан Кацагаджиев, Евгений Кушпель, Андрей Перович, Юрий Томилин, Геннадий Казачков

Описание: В центре событий — боевая группа наёмных военных под названием «Стая». Стив, Бес, Шаман, Ронин и Лаванда — военные профессионалы с большим опытом, работающие под прикрытием российских спецслужб.



Тип релиза: DVDRip
Контейнер: AVI

Видео: XviD, ~ 1327 Кбит/с, 720х400
Аудио: АС3, 2 ch, 192 Кбит/с
Общее
Полное имя : Позывной Стая1 серия.avi
Формат : AVI
Формат/Информация : Audio Video Interleave
Размер файла : 481 Мбайт
Продолжительность : 44 м.
Общий поток : 1525 Кбит/сек
Программа кодирования : VirtualDubMod 1.5.10.3 | www.virtualdub-fr.org || (build 2550/release)
Библиотека кодирования : VirtualDubMod build 2550/release

Видео
Идентификатор : 0
Формат : MPEG-4 Visual
Профиль формата : Advanced Simple@L5
Параметр BVOP формата : 2
Параметр QPel формата : Нет
Параметр GMC формата : Без точки перехода
Параметр матрицы формата : Default (MPEG)
Режим смешивания : Сжатый битовый поток
Идентификатор кодека : XVID
Идентификатор кодека/Подсказка : XviD
Продолжительность : 44 м.
Битрейт : 1323 Кбит/сек
Ширина : 720 пикселей
Высота : 400 пикселей
Соотношение сторон : 16:9
Частота кадров : 23,976 кадра/сек
Цветовое пространство : YUV
Субдискретизация насыщенности : 4:2:0
Битовая глубина : 8 бит
Тип развёртки : Прогрессивная
Метод сжатия : С потерями
Бит/(Пиксели*Кадры) : 0.192
Размер потока : 417 Мбайт (87%)
Библиотека кодирования : XviD 1.2.1 (UTC 2008-12-04)

Аудио
Идентификатор : 1
Формат : AC-3
Формат/Информация : Audio Coding 3
Расширение режима : CM (complete main)
Параметр Endianness формата : Big
Идентификатор кодека : 2000
Продолжительность : 44 м.
Вид битрейта : Постоянный
Битрейт : 192 Кбит/сек
Каналы : 2 канала
Расположение каналов : Front: L R
Частота : 48,0 КГц
Битовая глубина : 16 бит
Метод сжатия : С потерями
Размер потока : 60,5 Мбайт (13%)
Выравнивание : Разделение по промежуткам
Продолжительность промежутка : 42 мс. (1,00 видеокадр)
Время предзагрузки промежутка : 500 мс.
pic pic pic
Для увеличения картинки щелкните мышкой по превью

Этот торрент недоступен для скачивания без регистрации, однако доступен по публичной magnet-ссылке (источники с публичных трекеров). Перед использованием ссылки прочтите, пожалуйста Пользовательское соглашение, а также как можно дольше оставайтесь на раздаче! Для того, чтобы скачать сам торрент-файл (который видит больше источников), а также для того, чтобы поблагодарить релизера, вам необходимо зарегистрироваться. Если регистрироваться лень - вы можете также попробовать скачать релиз по нашим партнерским ссылкам ниже.

[underverse.su].t36754.torrent
Трекер: Зарегистрирован   [ 28.02.2014 15:49 ]  

Статус: проверено (by Паукан at 28.02.2014 15:51)
Поблагодарили: 3 человека
Тип торрента: публичный - доступные источники с открытых трекеров: 
Размер: 3,76 GB (занимает 0,86 DVDR, для записи нужно 1 болванка DVDR/RW)
 
 

Яндекс.Метрика powered by Sphinx


В Н И М А Н И Е
Сайт не распространяет и не хранит электронные версии произведений, а лишь бесплатно и без коммерческой выгоды (не требуя взамен платы,
SMS и т.д.) предоставляет доступ к создаваемому пользователями каталогу ссылок на торрент-файлы, которые содержат только списки хеш-сумм.
Убедительная просьба с жалобами обращаться напрямую к пользователю, разместившему торрент файл.

Вверх