Loading...
Error

По лезвию бритвы / Серии: 1-8 (8) (Сергей Кожевников) [2013 г., Драма, Военный, SatRip]

Статистика раздачи
Размер:  4,7 GB   |    Зарегистрирован:  2 года 9 месяцев   |    Скачан:  41 раз

Полного источника не было: 3 месяца 13 дней

Сидов:  0  |  0 KB/s  ]   Личеров:  0  |  0 KB/s  ]

* - сиды/пиры с внешних источников

   
 
Автор Сообщение

nemos Пол:Муж

25-Фев-2014 07:34



Год выпуска: 2013
Жанр: Драма, Военный
Страна: Россия
Режиссер: Сергей Кожевников
В ролях: Владислав Резник, Светлана Антонова, Сергей Угрюмов, Егор Баринов, Роман Богданов, Владимир Щербаков, Алексей Потапкин, Алексей Горячев, Александр Андриенко, Максим Битюков
Качество видео: SatRip

Продолжительность: 00:50:58 серия
Формат: AVI
Видео: XviD, 720x384, 1 453 kbps
Аудио: русский, MP3 2.0, 192 kbps

В начале войны Николай Кузнецов был заброшен в тыл врага. За время разведывательной деятельности он лично ликвидировал 11 генералов и высокопоставленных чиновников оккупационной администрации нацистской Германии. Посмертно ему было присвоено звание Героя Советского Союза.Фильм раскрывает психологические переживания главного героя, его внутренние конфликты и показывает осмысление им многих событий войны в период 1941-44-х годов. С одной стороны Кузнецов - убежденный советский патриот, а с другой - человек, способный до такой степени принять на себя "личину" врага, что она становится его вторым "я". По словам самого Николая Кузнецова: "Разведка - нечеловеческое дело, она калечит душу...".

Код:

D:\Фильмы (роздача)\Po.lezviju.britvy.2014.SATRip.Files-x\Po.lezviju.britvy.08.2014.SATRip.Files-x.avi
   General
      Complete name : D:\Фильмы (роздача)\Po.lezviju.britvy.2014.SATRip.Files-x\Po.lezviju.britvy.08.2014.SATRip.Files-x.avi
      Format : AVI
      Format/Info : Audio Video Interleave
      File size : 603 MiB
      Duration : 50mn 58s
      Overall bit rate : 1 655 Kbps
      Writing application : VirtualDubModRus 1.5.10.2 (build 2542/release)
      Writing library : VirtualDubMod build 2542/release
   Video #0
      ID : 0
      Format : MPEG-4 Visual
      Format profile : Advanced Simple@L5
      Format settings, BVOP : 2
      Format settings, QPel : No
      Format settings, GMC : No warppoints
      Format settings, Matrix : Default (H.263)
      Codec ID : XVID
      Codec ID/Hint : XviD
      Duration : 50mn 58s
      Bit rate : 1 453 Kbps
      Width : 720 pixels
      Height : 384 pixels
      Display aspect ratio : 1.85:1
      Frame rate : 25.000 fps
      Color space : YUV
      Chroma subsampling : 4:2:0
      Bit depth : 8 bits
      Scan type : Progressive
      Compression mode : Lossy
      Bits/(Pixel*Frame) : 0.210
      Stream size : 530 MiB (88%)
      Writing library : XviD 1.2.1 (UTC 2008-12-04)
   Audio #1
      ID : 1
      Format : MPEG Audio
      Format version : Version 1
      Format profile : Layer 3
      Codec ID : 55
      Codec ID/Hint : MP3
      Duration : 50mn 58s
      Bit rate mode : Constant
      Bit rate : 192 Kbps
      Channel(s) : 2 channels
      Sampling rate : 48.0 KHz
      Compression mode : Lossy
      Stream size : 70.0 MiB (12%)
      Alignment : Aligned on interleaves
      Interleave, duration : 40 ms (1.00 video frame)
      Interleave, preload duration : 504 ms
      Writing library : LAME3.99r
      Encoding settings : -m s -V 4 -q 2 -lowpass 18.6 -b 192
Семпл: http://multi-up.com/954295

picpicpicpicpicpicpicpicpicpicpicpicpicpicpic
Для увеличения картинки щелкните мышкой по превью

Этот торрент недоступен для скачивания без регистрации, однако доступен по публичной magnet-ссылке (источники с публичных трекеров). Перед использованием ссылки прочтите, пожалуйста Пользовательское соглашение, а также как можно дольше оставайтесь на раздаче! Для того, чтобы скачать сам торрент-файл (который видит больше источников), а также для того, чтобы поблагодарить релизера, вам необходимо зарегистрироваться. Если регистрироваться лень - вы можете также попробовать скачать релиз по нашим партнерским ссылкам ниже.

[underverse.su].t36757.torrent
Трекер: Зарегистрирован   [ 28.02.2014 16:50 ]  

Статус: проверено (by garry at 28.02.2014 23:02)
Поблагодарили: 4 человека
Тип торрента: публичный - доступные источники с открытых трекеров: 
Размер: 4,7 GB (занимает 1,07 DVDR, для записи нужно 2 болванки DVDR/RW)
 
 


Последний раз редактировалось: nemos (03.03.2014 21:11), всего редактировалось 6 раз(а)

nemos Пол:Муж

27-Фев-2014 19:16

Раздача обновлена! Добавлены серии: 7-8

Яндекс.Метрика powered by Sphinx


В Н И М А Н И Е
Сайт не распространяет и не хранит электронные версии произведений, а лишь бесплатно и без коммерческой выгоды (не требуя взамен платы,
SMS и т.д.) предоставляет доступ к создаваемому пользователями каталогу ссылок на торрент-файлы, которые содержат только списки хеш-сумм.
Убедительная просьба с жалобами обращаться напрямую к пользователю, разместившему торрент файл.

Вверх