Loading...
Error

Географ глобус пропил (Александр Велединский) [2013 г., драма, BDRip]

Статистика раздачи
Размер:  2,06 GB   |    Зарегистрирован:  2 года 9 месяцев   |    Скачан:  7 раз

Полного источника не было: 1 год

Сидов:  0  |  0 KB/s  ]   Личеров:  0  |  0 KB/s  ]

* - сиды/пиры с внешних источников

   
 
Автор Сообщение

garry Пол:Муж

25-Фев-2014 05:42

Географ глобус пропил


Год выпуска: 2013
Жанр: драма
Страна: Россия
Режиссер: Александр Велединский
В ролях: Константин Хабенский, Анфиса Черных, Елена Лядова, Александр Робак, Евгения Брик, Анна Уколова, Агриппина Стеклова, Евгения Крегжде, Максим Лагашкин, Анастасия Золотко
Сюжет фильма:
Молодой биолог Виктор Служкин от безденежья идет работать учителем географии в обычную пермскую школу. Он борется, а потом и дружит с учениками, конфликтует с завучем, ведет десятиклассников в поход — сплавляться по реке. Еще он пьет с друзьями вино, пытается ужиться с женой и водит в детский сад маленькую дочку. Он просто живет…

  • Мировая премьера: 26 июля 2013
  • Российская премьера: 7 ноября 2013, «Наше Кино»

Качество видео: BDRip

Продолжительность: 02:04:51
Формат: AVI
Видео: XviD, 720x304, 1900 kbps
Аудио: русский, оригинал, AC3 5.1, 448 kbps

Код:

Общее
Полное имя                               : Geograf.globus.propil.2013.O.BDRip.2100MB.nnm-club.avi
Формат                                   : AVI
Формат/Информация                        : Audio Video Interleave
Размер файла                             : 2,06 Гбайт
Продолжительность                        : 2 ч. 4 м.
Общий поток                              : 2358 Кбит/сек
Программа кодирования                    : VirtualDubMod 1.5.10.2 (build 2540/release)
Библиотека кодирования                   : VirtualDubMod build 2540/release

Видео
Идентификатор                            : 0
Формат                                   : MPEG-4 Visual
Профиль формата                          : Advanced Simple@L5
Параметр BVOP формата                    : 2
Параметр QPel формата                    : Нет
Параметр GMC формата                     : Без точки перехода
Параметр матрицы формата                 : Выборочная
Идентификатор кодека                     : XVID
Идентификатор кодека/Подсказка           : XviD
Продолжительность                        : 2 ч. 4 м.
Битрейт                                  : 1901 Кбит/сек
Ширина                                   : 720 пикселей
Высота                                   : 304 пикселя
Соотношение сторон                       : 2,35:1
Частота кадров                           : 24,000 кадра/сек
Цветовое пространство                    : YUV
Субдискретизация насыщенности            : 4:2:0
Битовая глубина                          : 8 бит
Тип развёртки                            : Прогрессивная
Метод сжатия                             : С потерями
Бит/(Пиксели*Кадры)                      : 0.362
Размер потока                            : 1,66 Гбайт (81%)
Библиотека кодирования                   : XviD 1.2.1 (UTC 2008-12-04)

Аудио
Идентификатор                            : 1
Формат                                   : AC-3
Формат/Информация                        : Audio Coding 3
Расширение режима                        : CM (complete main)
Параметр Endianness формата              : Big
Идентификатор кодека                     : 2000
Продолжительность                        : 2 ч. 4 м.
Вид битрейта                             : Постоянный
Битрейт                                  : 448 Кбит/сек
Каналы                                   : 6 каналов
Расположение каналов                     : Front: L C R, Side: L R, LFE
Частота                                  : 48,0 КГц
Битовая глубина                          : 16 бит
Метод сжатия                             : С потерями
Размер потока                            : 400 Мбайт (19%)
Выравнивание                             : Разделение по промежуткам
Продолжительность промежутка             : 42  мс. (1,00 видеокадр)
Время предзагрузки промежутка            : 500  мс.
Семпл: http://sendfile.su/914112

Релиз: NNM-Club

picpicpic
Для увеличения картинки щелкните мышкой по превью

Этот торрент недоступен для скачивания без регистрации, однако доступен по публичной magnet-ссылке (источники с публичных трекеров). Перед использованием ссылки прочтите, пожалуйста Пользовательское соглашение, а также как можно дольше оставайтесь на раздаче! Для того, чтобы скачать сам торрент-файл (который видит больше источников), а также для того, чтобы поблагодарить релизера, вам необходимо зарегистрироваться. Если регистрироваться лень - вы можете также попробовать скачать релиз по нашим партнерским ссылкам ниже.

[underverse.su].t36656.torrent
Трекер: Зарегистрирован   [ 25.02.2014 05:42 ]  

Статус: проверено (by garry at 25.02.2014 05:50)
Поблагодарили: пока никто не поблагодарил...
Тип торрента: публичный - доступные источники с открытых трекеров: 
Размер: 2,06 GB (занимает 0,47 DVDR, для записи нужно 1 болванка DVDR/RW)
 
 
Похожие темы
Форум Тема Автор Торрент Отв. Посл. сооб.
Наше кино [DVDRip, Low-Res HDRip, и т.д.] Географ глобус пропил (Александр Велединский) [2013 г., драма, BDRip] garry
32 | 0

0 | 597

39

25.02.2014 05:33

Наше кино [DVDRip, Low-Res HDRip, и т.д.] Географ глобус пропил (Александр Велединский) [2013 г., драма, BDRip-AVC] garry
20 | 1

1 | 556

45

30.06.2014 21:02

Наше кино [HDDVDRip / BDRip / WEB-DL / HDTV 1080/720р] Географ глобус пропил (Александр Велединский) [2013, Россия, драма, BDRip 720p] uzi2009
137 | 4

1 | 1673

60

22.02.2014 08:41


Яндекс.Метрика powered by Sphinx


В Н И М А Н И Е
Сайт не распространяет и не хранит электронные версии произведений, а лишь бесплатно и без коммерческой выгоды (не требуя взамен платы,
SMS и т.д.) предоставляет доступ к создаваемому пользователями каталогу ссылок на торрент-файлы, которые содержат только списки хеш-сумм.
Убедительная просьба с жалобами обращаться напрямую к пользователю, разместившему торрент файл.

Вверх