Loading...
Error

Вий (Олег Степченко) [2013 г., фэнтези, триллер, приключения, WEBRip]

Статистика раздачи
Размер:  1,36 GB   |    Зарегистрирован:  2 года 9 месяцев   |    Скачан:  88 раз

Полного источника не было: 5 месяцев 24 дня

Сидов:  0  |  0 KB/s  ]   Личеров:  0  |  0 KB/s  ]

* - сиды/пиры с внешних источников

   
 
Автор Сообщение

nemos Пол:Муж

21-Фев-2014 17:59



Год выпуска: 2013
Жанр: фэнтези, триллер, приключения
Страна: Россия
Режиссер: Олег Степченко
В ролях: Джейсон Флеминг (Джонатан Грин), Андрей Смоляков (отец Паисий), Алексей Чадов (Петрусь), Александр Яковлев (Оверко), Игорь Жижикин (Дорош), Агния Дитковските (Настуся), Ольга Зайцева (панночка), Валерий Золотухин (Явтух), Виктор Бычков (кузнец), Юрий Цурило (Сотник), Анна Чурина (мисс Дадли), Чарльз Дэнс (лорд Дадли)

Качество видео: WEBRip

Продолжительность: 02:07:00
Формат: AVI
Видео: XviD, 720x400, 1392 kbps
Аудио: русский, MP3 2.0, 128 kbps

Начало XVIII века. Картограф Джонатан Грин совершает научное путешествие из Европы на Восток. Проследовав через Трансильванию и преодолев Карпатские горы, он попадает в затерянную среди непроходимых лесов деревушку. Только воля случая и густой туман могли занести его в это проклятое место. Народ, живущий здесь, не похож ни на один доселе виданный путешественником. Эти люди, оградив себя от остального мира глубоким рвом, наивно верят, что смогут уберечься от нечисти, не понимая, что она уже давно поселилась в их душах и только ждёт случая, чтобы вырваться наружу. Даже в страшном сне учёный-материалист не предполагал, что здесь ему уготована встреча с верным слугой дьявола.

  • Мировая премьера: 30 января 2014, ...
  • Российская премьера: 30 января 2014, ...

Код:

D:\Фильмы (роздача)\Viy.2013.O.WEBRip.1400MB.avi
   General
      Complete name : D:\Фильмы (роздача)\Viy.2013.O.WEBRip.1400MB.avi
      Format : AVI
      Format/Info : Audio Video Interleave
      File size : 1.36 GiB
      Duration : 2h 7mn
      Overall bit rate : 1 529 Kbps
      Writing application : VirtualDubMod 1.5.10.3 | www.virtualdub-fr.org || (build 2550/release)
      Writing library : VirtualDubMod build 2550/release
   Video #0
      ID : 0
      Format : MPEG-4 Visual
      Format profile : Advanced Simple@L5
      Format settings, BVOP : 2
      Format settings, QPel : No
      Format settings, GMC : No warppoints
      Format settings, Matrix : Default (MPEG)
      Codec ID : XVID
      Codec ID/Hint : XviD
      Duration : 2h 7mn
      Bit rate : 1 392 Kbps
      Width : 720 pixels
      Height : 400 pixels
      Display aspect ratio : 16:9
      Frame rate : 24.000 fps
      Color space : YUV
      Chroma subsampling : 4:2:0
      Bit depth : 8 bits
      Scan type : Progressive
      Compression mode : Lossy
      Bits/(Pixel*Frame) : 0.201
      Stream size : 1.24 GiB (91%)
      Writing library : XviD 73
   Audio #1
      ID : 1
      Format : MPEG Audio
      Format version : Version 1
      Format profile : Layer 3
      Codec ID : 55
      Codec ID/Hint : MP3
      Duration : 2h 7mn
      Bit rate mode : Constant
      Bit rate : 128 Kbps
      Channel(s) : 2 channels
      Sampling rate : 48.0 KHz
      Compression mode : Lossy
      Stream size : 117 MiB (8%)
      Alignment : Aligned on interleaves
      Interleave, duration : 42 ms (1.00 video frame)
      Interleave, preload duration : 504 ms
      Writing library : LAME3.99r
      Encoding settings : -m s -V 4 -q 2 -lowpass 17 -b 128
Семпл: http://multi-up.com/953033

picpicpicpicpicpicpicpicpicpicpic
Для увеличения картинки щелкните мышкой по превью

Этот торрент недоступен для скачивания без регистрации, однако доступен по публичной magnet-ссылке (источники с публичных трекеров). Перед использованием ссылки прочтите, пожалуйста Пользовательское соглашение, а также как можно дольше оставайтесь на раздаче! Для того, чтобы скачать сам торрент-файл (который видит больше источников), а также для того, чтобы поблагодарить релизера, вам необходимо зарегистрироваться. Если регистрироваться лень - вы можете также попробовать скачать релиз по нашим партнерским ссылкам ниже.

[underverse.su].t36549.torrent
Трекер: Зарегистрирован   [ 21.02.2014 18:00 ]  

Статус: проверено (by nemos at 21.08.2014 16:51)
Поблагодарили: 10 человек
Тип торрента: публичный - доступные источники с открытых трекеров: 
Размер: 1,36 GB (занимает 0,31 DVDR, для записи нужно 1 болванка DVDR/RW)
 
 
Похожие темы
Форум Тема Автор Торрент Отв. Посл. сооб.
Наше кино [DVDRip, Low-Res HDRip, и т.д.] Вий (Олег Степченко) [2013 г., фэнтези, триллер, приключения, DVDRip] geomolot
0 | 0

5 | 627

39

05.04.2014 20:23

Наше кино [DVDRip, Low-Res HDRip, и т.д.] Вий (Олег Степченко) [2013 г., Фэнтези, триллер, приключения, HDRip] WeaSel
0 | 0

0 | 1162

49

15.03.2014 07:51

Наше кино HQ Вий (Олег Степченко) [2013 г., фэнтези, триллер, приключения, BDRip] HQ Underverse HQ Underverse
0 | 0

0 | 1900

159

19.03.2014 07:55

Наше кино [DVD / HDDVD / BD / Remux] Вий (Олег Степченко) [2013, Россия, Украина, Германия, Великобритания, Чехия, Фэнтези, триллер, приключения, BDRemux 1080p] uzi2009
1 | 0

2 | 1683

20

04.07.2014 12:36

Наше кино [HDDVDRip / BDRip / WEB-DL / HDTV 1080/720р] Вий (Олег Степченко) [2013 г., Фэнтези, триллер, приключения, WEB-DL 720p] nemos
9 | 0

1 | 2084

397

23.02.2014 17:48


Яндекс.Метрика powered by Sphinx


В Н И М А Н И Е
Сайт не распространяет и не хранит электронные версии произведений, а лишь бесплатно и без коммерческой выгоды (не требуя взамен платы,
SMS и т.д.) предоставляет доступ к создаваемому пользователями каталогу ссылок на торрент-файлы, которые содержат только списки хеш-сумм.
Убедительная просьба с жалобами обращаться напрямую к пользователю, разместившему торрент файл.

Вверх