Loading...
Error

Авиатор / The Aviator (Мартин Скорсезе / Martin Scorsese) [2004 г., драма, биография, BDRip] Dub

Статистика раздачи
Размер:  1,46 GB   |    Зарегистрирован:  2 года 9 месяцев   |    Скачан:  11 раз

Полного источника не было: 10 дней

Сидов:  0  |  0 KB/s  ]   Личеров:  0  |  0 KB/s  ]

* - сиды/пиры с внешних источников

   
 
Автор Сообщение

garry Пол:Муж

19-Фев-2014 08:13

Авиатор / The Aviator


Год выпуска: 2004
Жанр: драма, биография
Страна: США , Германия
Режиссер: Мартин Скорсезе / Martin Scorsese
В ролях: Леонардо ДиКаприо, Кейт Бланшетт, Мэтт Росс, Джон Си Райли, Алан Алда, Кейт Бекинсейл, Алек Болдуин, Иэн Холм, Адам Скотт, Дэнни Хьюстон
Сюжет фильма:
Получив от отца небольшую фабрику, Говард Хьюз превратил ее в гигантское, фантастически прибыльное предприятие. Став владельцем огромной кинокомпании, он снял самый дорогой для своего времени фильм и покорил сердца прелестнейших голливудских актрис.Ему принадлежали самые престижные казино Лас-Вегаса и он установил рекорд скоростных полетов, приобрел вторую по величине коммерческую авиакомпанию…Деньги жгут сердце Хьюза, они не дают ему покоя, а душа его рвется ввысь. Только там, на высоте нескольких тысяч метров он счастлив по-настоящему. Только там, где все решает лишь мастерство пилота и Бог, ничто не ценится так дорого, как верность и честь.

  • Мировая премьера: 14 декабря 2004
  • Российская премьера: 3 февраля 2005, «Парадиз»


Качество видео: BDRip

Продолжительность: 02:50:09
Формат: AVI
Видео: XviD, 688x288, 1090 kbps
Аудио: русский, дублированный [лицензия], MP3 2.0, 128 kbps

Код:

General
 Complete name                            : D:\Aviator_2004_BDRip_by_Dalemake.avi
 Format                                   : AVI
 Format/Info                              : Audio Video Interleave
 File size                                : 1.46 GiB
 Duration                                 : 2h 50mn
 Overall bit rate                         : 1 228 Kbps
 Writing application                      : VirtualDubMod 1.5.10.3 | www.virtualdub-fr.org || (build 2550/release)
 Writing library                          : VirtualDubMod build 2550/release

Video
 ID                                       : 0
 Format                                   : MPEG-4 Visual
 Format profile                           : Advanced Simple@L5
 Format settings, BVOP                    : 1
 Format settings, QPel                    : No
 Format settings, GMC                     : No warppoints
 Format settings, Matrix                  : Custom
 Codec ID                                 : XVID
 Codec ID/Hint                            : XviD
 Duration                                 : 2h 50mn
 Bit rate                                 : 1 091 Kbps
 Width                                    : 688 pixels
 Height                                   : 288 pixels
 Display aspect ratio                     : 2.40:1
 Frame rate                               : 23.976 fps
 Color space                              : YUV
 Chroma subsampling                       : 4:2:0
 Bit depth                                : 8 bits
 Scan type                                : Progressive
 Compression mode                         : Lossy
 Bits/(Pixel*Frame)                       : 0.230
 Stream size                              : 1.30 GiB (89%)
 Writing library                          : XviD 73

Audio
 ID                                       : 1
 Format                                   : MPEG Audio
 Format version                           : Version 1
 Format profile                           : Layer 3
 Codec ID                                 : 55
 Codec ID/Hint                            : MP3
 Duration                                 : 2h 50mn
 Bit rate mode                            : Constant
 Bit rate                                 : 128 Kbps
 Channel(s)                               : 2 channels
 Sampling rate                            : 48.0 KHz
 Compression mode                         : Lossy
 Stream size                              : 156 MiB (10%)
 Alignment                                : Aligned on interleaves
 Interleave, duration                     : 42 ms (1.00 video frame)
 Interleave, preload duration             : 504 ms
 Writing library                          : LAME3.99r
 Encoding settings                        : -m s -V 4 -q 2 -lowpass 17 -b 128
Релиз: dalemake

picpicpic
Для увеличения картинки щелкните мышкой по превью

Этот торрент недоступен для скачивания без регистрации, однако доступен по публичной magnet-ссылке (источники с публичных трекеров). Перед использованием ссылки прочтите, пожалуйста Пользовательское соглашение, а также как можно дольше оставайтесь на раздаче! Для того, чтобы скачать сам торрент-файл (который видит больше источников), а также для того, чтобы поблагодарить релизера, вам необходимо зарегистрироваться. Если регистрироваться лень - вы можете также попробовать скачать релиз по нашим партнерским ссылкам ниже.

[underverse.su].t36490.torrent
Трекер: Зарегистрирован   [ 19.02.2014 08:13 ]  

Статус: проверено (by garry at 19.02.2014 08:57)
Поблагодарили: пока никто не поблагодарил...
Тип торрента: публичный - доступные источники с открытых трекеров: 
Размер: 1,46 GB (занимает 0,33 DVDR, для записи нужно 1 болванка DVDR/RW)
 
 
Похожие темы
Форум Тема Автор Торрент Отв. Посл. сооб.
Зарубежное кино [DVDRip, Low-Res HDRip, и т.д.] Авиатор / The Aviator (Мартин Скорсезе / Martin Scorsese) [2004 г., драма, биография, BDRip] Dub garry
1 | 0

0 | 1268

9

19.02.2014 09:00

Зарубежное кино [DVDRip, Low-Res HDRip, и т.д.] Авиатор / The Aviator (Мартин Скорсезе / Martin Scorsese) [2004 г., драма, биография, BDRip-AVC] Dub + DVO + AVO + Original garry
58 | 0

0 | 1286

11

19.02.2014 09:11

Зарубежное кино [DVD / HDDVD / BD / Remux] Авиатор / The Aviator (Мартин Скорсезе / Martin Scorsese) [2004, драма, биография, Blu-ray disc (custom) 1080p] DUB + DVO Tycoon + Sub (Eng, Rus) + Original eng garry
0 | 0

0 | 1323

3

20.02.2014 06:41

Зарубежное кино [HDDVDRip / BDRip / WEB-DL / HDTV 1080/720р] Авиатор / The Aviator (Мартин Скорсезе / Martin Scorsese) [2004 г., драма, биография, BDRip 720p] 2xDub + DVO + Original + AVO garry
10 | 5

0 | 1265

8

20.02.2014 07:05


Яндекс.Метрика powered by Sphinx


В Н И М А Н И Е
Сайт не распространяет и не хранит электронные версии произведений, а лишь бесплатно и без коммерческой выгоды (не требуя взамен платы,
SMS и т.д.) предоставляет доступ к создаваемому пользователями каталогу ссылок на торрент-файлы, которые содержат только списки хеш-сумм.
Убедительная просьба с жалобами обращаться напрямую к пользователю, разместившему торрент файл.

Вверх