Loading...
Error

Лихорадка: Пациент Зеро / Cabin Fever: Patient Zero (Кааре Эндрюс / Kaare Andrews) [2014, ужасы, BDRip] DVO

Статистика раздачи
Размер:  1,46 GB   |    Зарегистрирован:  2 года 9 месяцев   |    Скачан:  19 раз

Полного источника не было: 16 дней

Сидов:  0  |  0 KB/s  ]   Личеров:  0  |  0 KB/s  ]

* - сиды/пиры с внешних источников

   
 
Автор Сообщение

uzi2009 Пол:Муж

19-Фев-2014 08:09

Лихорадка: Пациент Зеро / Cabin Fever: Patient Zero
«Лето. Море. Смерть»

Год выпуска: 2014
Выпущено: США / Indomina Productions
Жанр: ужасы
Продолжительность: 01:34:50
Перевод: Двухголосый закадровый |DeadSno & den904|
Cубтитры: нет
Режиссер:
Кааре Эндрюс / Kaare Andrews
В ролях:
Шон Эстин (Porter), Карри Грэм (Dr. Edwards), Райан Доноху (Dobs), Брандо Итон (Josh), Джиллиан Мюррэй (Penny), Митч Райан (Marcus), Солли Дюран (Camila), Лидия Хёрст (Bridget), Клодетт Лали (Kate), Эрнесто Баез (Rodriguez)
Описание:
Молодая компания отправляется на Карибские острова, чтобы оттянуться перед свадьбой одного из друзей. Но на берегу лазурного океана, посреди вечного лета и райского блаженства ребята обнаруживают очаг смертоносной болезни… Вскоре начинается отчет жертв… Удастся ли кому-нибудь выжить?
IMDB | КиноПоиск | Сэмпл |
Качество: BDRip [Cabin.Fever.Patient.Zero.2014.UNCUT.1080p.BluRay.AVC.DTS-HD.MA.7.1-PublicHD]
Формат: AVI

Видео: 720x304 (2.37:1), 23.976 fps, XviD build 73 ~1745 kbps avg, 0.33 bit/pixel
Аудио: 48 kHz, AC3 Dolby Digital, 3/2 (L,C,R,l,r) + LFE ch, ~448.00 kbps avg

pic pic pic


Код:

General
Complete name                            : D:\Lihoradka_Paсient_Zero_2014_BDRip_by_Dalemake.avi
Format                                   : AVI
Format/Info                              : Audio Video Interleave
File size                                : 1.46 GiB
Duration                                 : 1h 34mn
Overall bit rate                         : 2 203 Kbps
Writing application                      : VirtualDubMod 1.5.10.3 | www.virtualdub-fr.org || (build 2550/release)
Writing library                          : VirtualDubMod build 2550/release

Video
ID                                       : 0
Format                                   : MPEG-4 Visual
Format profile                           : Advanced Simple@L5
Format settings, BVOP                    : 1
Format settings, QPel                    : No
Format settings, GMC                     : No warppoints
Format settings, Matrix                  : Custom
Codec ID                                 : XVID
Codec ID/Hint                            : XviD
Duration                                 : 1h 34mn
Bit rate                                 : 1 746 Kbps
Width                                    : 720 pixels
Height                                   : 304 pixels
Display aspect ratio                     : 2.35:1
Frame rate                               : 23.976 fps
Color space                              : YUV
Chroma subsampling                       : 4:2:0
Bit depth                                : 8 bits
Scan type                                : Progressive
Compression mode                         : Lossy
Bits/(Pixel*Frame)                       : 0.333
Stream size                              : 1.16 GiB (79%)
Writing library                          : XviD 73

Audio
ID                                       : 1
Format                                   : AC-3
Format/Info                              : Audio Coding 3
Mode extension                           : CM (complete main)
Format settings, Endianness              : Big
Codec ID                                 : 2000
Duration                                 : 1h 34mn
Bit rate mode                            : Constant
Bit rate                                 : 448 Kbps
Channel(s)                               : 6 channels
Channel positions                        : Front: L C R, Side: L R, LFE
Sampling rate                            : 48.0 KHz
Bit depth                                : 16 bits
Compression mode                         : Lossy
Stream size                              : 304 MiB (20%)
Alignment                                : Split accross interleaves
Interleave, duration                     : 42 ms (1.00 video frame)
Interleave, preload duration             : 500 ms

Этот торрент недоступен для скачивания без регистрации, однако доступен по публичной magnet-ссылке (источники с публичных трекеров). Перед использованием ссылки прочтите, пожалуйста Пользовательское соглашение, а также как можно дольше оставайтесь на раздаче! Для того, чтобы скачать сам торрент-файл (который видит больше источников), а также для того, чтобы поблагодарить релизера, вам необходимо зарегистрироваться. Если регистрироваться лень - вы можете также попробовать скачать релиз по нашим партнерским ссылкам ниже.

[underverse.su].t36489.torrent
Трекер: Зарегистрирован   [ 19.02.2014 08:09 ]  

Статус: проверено (by garry at 19.02.2014 08:27)
Поблагодарили: 1 человек
Тип торрента: публичный - доступные источники с открытых трекеров: 
Размер: 1,46 GB (занимает 0,33 DVDR, для записи нужно 1 болванка DVDR/RW)
 
 
Похожие темы
Форум Тема Автор Торрент Отв. Посл. сооб.
Зарубежное кино [DVDRip, Low-Res HDRip, и т.д.] Лихорадка: Пациент Зеро / Cabin Fever: Patient Zero (Кааре Эндрюс / Kaare Andrews) [2014 г., ужасы, BDRip] DVO (DeadSno & den904) + Original (Eng) + Sub (Eng) 90ytr90
4 | 0

0 | 268

9

21.04.2014 16:33

garry Пол:Муж

19-Фев-2014 08:25

uzi2009
зачем же Вы обычные фильмы да в HD-раздел :)

19-Фев-2014 08:27

Топик был перенесен из форума Зарубежное кино [HDDVDRip / BDRip / WEB-DL / HDTV 1080/720р] в форум Зарубежное кино [DVDRip, Low-Res HDRip, и т.д.]


gari
 

Яндекс.Метрика powered by Sphinx


В Н И М А Н И Е
Сайт не распространяет и не хранит электронные версии произведений, а лишь бесплатно и без коммерческой выгоды (не требуя взамен платы,
SMS и т.д.) предоставляет доступ к создаваемому пользователями каталогу ссылок на торрент-файлы, которые содержат только списки хеш-сумм.
Убедительная просьба с жалобами обращаться напрямую к пользователю, разместившему торрент файл.

Вверх