Loading...
Error

Драконов огонь / Dragon Fire (Рик Джейкобсон / Rick Jacobson ) [1993 г., фантастика, боевик, драма, DVDRip] 2xAVO + Original

Статистика раздачи
Размер:  1,38 GB   |    Зарегистрирован:  2 года 9 месяцев   |    Скачан:  5 раз

Полного источника не было: 2 года 4 месяца

Сидов:  0  |  0 KB/s  ]   Личеров:  0  |  0 KB/s  ]

* - сиды/пиры с внешних источников

   
 
Автор Сообщение

tiptop Пол:Муж

18-Фев-2014 14:18

Драконов огонь / Dragon Fire


Год выпуска: 1993
Жанр: фантастика, боевик, драма
Страна: США
Режиссер: Рик Джейкобсон / Rick Jacobson
В ролях: Доминик ЛаБанка, Памела Понд, Харольд Хэзелдайн, Чарльз Филип Мур, Майкл Блэнкс, Дэннис Кейффер, Рой Беш, Мануэль Любен, Рэндэлл Широ Айдейши
Сюжет фильма:
В погрязшем в жестокости и насилии Лос-Анджелесе 2050 года появляется парень Лэйкер, стремящийся отомстить за смерть своего брата Джонни, которого убили вскоре после получения им первого приза на подпольном турнире по кикбоксингу. Для этого Лэйкеру придётся пойти по стопам брата и тоже принять участие в нелегальном чемпионате.

  • Мировая премьера: 20 октября 1993


Качество видео: DVDRip

Продолжительность: 01:26:55
Формат: AVI
Видео: XviD, 720x540, 1478 kbps
Аудио #1: русский, одноголосый закадровый [авторский], AC3 2.0, 256 kbps [В. Дохалов | Полный перевод (на не переведённые фрагменты Ю. Сербин)]
Аудио #2: русский, одноголосый закадровый [авторский], AC3 2.0, 256 kbps [А. Дольский (на не переведённые фрагменты Ю. Сербин)]
Аудио #3: английский, оригинал, AC3 2.0, 256 kbps

picpicpic
Для увеличения картинки щелкните мышкой по превью
Общее
Полное имя : G:\ДИСК 2\01.ФИЛЬМЫ\Драконов огонь Dragon Fire (1993) DVDRip A\Drakonov.ogon.1993.DVDRip.avi
Формат : AVI
Формат/Информация : Audio Video Interleave
Профиль формата : OpenDML
Размер файла : 1,38 Гбайт
Продолжительность : 1 ч. 26 м.
Общий поток : 2272 Кбит/сек
Программа кодирования : Lavf51.12.1

Видео
Идентификатор : 0
Формат : MPEG-4 Visual
Профиль формата : Simple@L1
Параметр BVOP формата : Нет
Параметр QPel формата : Нет
Параметр GMC формата : Без точки перехода
Параметр матрицы формата : Default (H.263)
Идентификатор кодека : FMP4
Продолжительность : 1 ч. 26 м.
Битрейт : 1478 Кбит/сек
Ширина : 720 пикселей
Высота : 540 пикселей
Соотношение сторон : 4:3
Частота кадров : 24,000 кадра/сек
Цветовое пространство : YUV
Субдискретизация насыщенности : 4:2:0
Битовая глубина : 8 бит
Тип развёртки : Прогрессивная
Метод сжатия : С потерями
Бит/(Пиксели*Кадры) : 0.158
Размер потока : 919 Мбайт (65%)
Библиотека кодирования : Lavc51.40.4

Аудио #1
Идентификатор : 1
Формат : AC-3
Формат/Информация : Audio Coding 3
Расширение режима : CM (complete main)
Параметр Endianness формата : Big
Идентификатор кодека : 2000
Продолжительность : 1 ч. 26 м.
Вид битрейта : Постоянный
Битрейт : 256 Кбит/сек
Каналы : 2 канала
Расположение каналов : Front: L R
Частота : 48,0 КГц
Битовая глубина : 16 бит
Метод сжатия : С потерями
Размер потока : 159 Мбайт (11%)
Выравнивание : Соединение по промежуткам
Продолжительность промежутка : 32 мс. (0,77 видеокадр)
Время предзагрузки промежутка : 32 мс.

Аудио #2
Идентификатор : 2
Формат : AC-3
Формат/Информация : Audio Coding 3
Расширение режима : CM (complete main)
Параметр Endianness формата : Big
Идентификатор кодека : 2000
Продолжительность : 1 ч. 26 м.
Вид битрейта : Постоянный
Битрейт : 256 Кбит/сек
Каналы : 2 канала
Расположение каналов : Front: L R
Частота : 48,0 КГц
Битовая глубина : 16 бит
Метод сжатия : С потерями
Размер потока : 159 Мбайт (11%)
Выравнивание : Соединение по промежуткам
Продолжительность промежутка : 32 мс. (0,77 видеокадр)
Время предзагрузки промежутка : 32 мс.

Аудио #3
Идентификатор : 3
Формат : AC-3
Формат/Информация : Audio Coding 3
Расширение режима : CM (complete main)
Параметр Endianness формата : Big
Идентификатор кодека : 2000
Продолжительность : 1 ч. 26 м.
Вид битрейта : Постоянный
Битрейт : 256 Кбит/сек
Каналы : 2 канала
Расположение каналов : Front: L R
Частота : 48,0 КГц
Битовая глубина : 16 бит
Метод сжатия : С потерями
Размер потока : 159 Мбайт (11%)
Выравнивание : Соединение по промежуткам
Продолжительность промежутка : 32 мс. (0,77 видеокадр)
Время предзагрузки промежутка : 32 мс.

Этот торрент недоступен для скачивания без регистрации, однако доступен по публичной magnet-ссылке (источники с публичных трекеров). Перед использованием ссылки прочтите, пожалуйста Пользовательское соглашение, а также как можно дольше оставайтесь на раздаче! Для того, чтобы скачать сам торрент-файл (который видит больше источников), а также для того, чтобы поблагодарить релизера, вам необходимо зарегистрироваться. Если регистрироваться лень - вы можете также попробовать скачать релиз по нашим партнерским ссылкам ниже.

[underverse.su].t36472.torrent
Трекер: Зарегистрирован   [ 18.02.2014 14:18 ]  

Статус: # сомнительно (by garry at 18.02.2014 18:54)
Поблагодарили: пока никто не поблагодарил...
Тип торрента: публичный - доступные источники с открытых трекеров: 
Размер: 1,38 GB (занимает 0,32 DVDR, для записи нужно 1 болванка DVDR/RW)
 
 


Последний раз редактировалось: tiptop (18.02.2014 18:23), всего редактировалось 2 раз(а)

Яндекс.Метрика powered by Sphinx


В Н И М А Н И Е
Сайт не распространяет и не хранит электронные версии произведений, а лишь бесплатно и без коммерческой выгоды (не требуя взамен платы,
SMS и т.д.) предоставляет доступ к создаваемому пользователями каталогу ссылок на торрент-файлы, которые содержат только списки хеш-сумм.
Убедительная просьба с жалобами обращаться напрямую к пользователю, разместившему торрент файл.

Вверх