Loading...
Error

Судья (1-4 серии из 4) (Виктор Конисевич) [2014 г., детектив, боевик, криминал, SatRip]

Статистика раздачи
Размер:  2,34 GB   |    Зарегистрирован:  2 года 9 месяцев   |    Скачан:  34 раза

Полного источника не было: 1 год 9 месяцев

Сидов:  0  |  0 KB/s  ]   Личеров:  0  |  0 KB/s  ]

* - сиды/пиры с внешних источников

   
 
Автор Сообщение

nemos Пол:Муж

16-Фев-2014 19:18

Судья


Год выпуска: 2014
Жанр: детектив, боевик, криминал
Страна: Россия
Режиссер: Виктор Конисевич
В ролях: Дмитрий Ульянов, Денис Карасёв, Юрий Беляев, Алексей Янин, Евгений Атарик, Людмила Селютина, Татьяна Лянник
Сюжет фильма:
Судья Олег Левичев всегда верен своим принципам и судит по закону, а не по эмоциям. Он выносит приговор пенсионеру, убившему мужчину, который изнасиловал его дочь. Даже прокурор удивлен таким жестким решением – 8 лет колонии строгого режима за то, что отец постоял за честь своей дочери. Олег уверен, что, случись с ним такая ситуация, он ни за что не взялся бы за ружье. Вскоре он и его красавица жена едут в небольшой южный городок к ее родителям. Там они случайно встречаются с местным авторитетом Сергеем Зайцевым по прозвищу Зюзя, который держит весь город в своем подчинении. Мужчина добивался внимания Нины в юности, но тогда девушка ответила ему отказом. Но Зюзя привык получать все, что ему нужно, пусть и не сразу, а спустя 20 лет…
Качество видео: SatRip

Продолжительность: 00:43:13 серия
Формат: AVI
Видео: XviD, 720х448, 1 794 kbps
Аудио: русский, MP3 2.0, 128 kbps

Код:

D:\Фильмы (роздача)\Sudjya.2014.SATRip\Sudjya.04.2014.SATRip.KZ.avi
   General
      Complete name : D:\Фильмы (роздача)\Sudjya.2014.SATRip\Sudjya.04.2014.SATRip.KZ.avi
      Format : AVI
      Format/Info : Audio Video Interleave
      File size : 597 MiB
      Duration : 43mn 13s
      Overall bit rate : 1 932 Kbps
      Writing library : VirtualDub build 32507/release
   Video #0
      ID : 0
      Format : MPEG-4 Visual
      Format profile : Advanced Simple@L5
      Format settings, BVOP : 2
      Format settings, QPel : No
      Format settings, GMC : No warppoints
      Format settings, Matrix : Default (MPEG)
      Codec ID : XVID
      Codec ID/Hint : XviD
      Duration : 43mn 13s
      Bit rate : 1 794 Kbps
      Width : 720 pixels
      Height : 448 pixels
      Display aspect ratio : 1.607
      Frame rate : 25.000 fps
      Color space : YUV
      Chroma subsampling : 4:2:0
      Bit depth : 8 bits
      Scan type : Progressive
      Compression mode : Lossy
      Bits/(Pixel*Frame) : 0.223
      Stream size : 555 MiB (93%)
      Writing library : XviD 64
   Audio #1
      ID : 1
      Format : MPEG Audio
      Format version : Version 1
      Format profile : Layer 3
      Mode : Joint stereo
      Mode extension : MS Stereo
      Codec ID : 55
      Codec ID/Hint : MP3
      Duration : 43mn 12s
      Bit rate mode : Constant
      Bit rate : 128 Kbps
      Channel(s) : 2 channels
      Sampling rate : 48.0 KHz
      Compression mode : Lossy
      Stream size : 39.6 MiB (7%)
      Alignment : Split accross interleaves
      Interleave, duration : 40 ms (1.00 video frame)
      Interleave, preload duration : 500 ms
Семпл: http://multi-up.com/951799

picpicpicpicpicpicpicpicpicpicpicpicpicpicpicpicpicpicpicpicpicpicpicpicpicpicpicpicpic
Для увеличения картинки щелкните мышкой по превью

Этот торрент недоступен для скачивания без регистрации, однако доступен по публичной magnet-ссылке (источники с публичных трекеров). Перед использованием ссылки прочтите, пожалуйста Пользовательское соглашение, а также как можно дольше оставайтесь на раздаче! Для того, чтобы скачать сам торрент-файл (который видит больше источников), а также для того, чтобы поблагодарить релизера, вам необходимо зарегистрироваться. Если регистрироваться лень - вы можете также попробовать скачать релиз по нашим партнерским ссылкам ниже.

[underverse.su].t36409.torrent
Трекер: Зарегистрирован   [ 16.02.2014 19:18 ]  

Статус: проверено (by garry at 17.02.2014 00:35)
Поблагодарили: 2 человека
Тип торрента: публичный - доступные источники с открытых трекеров: 
Размер: 2,34 GB (занимает 0,53 DVDR, для записи нужно 1 болванка DVDR/RW)
 
 


Последний раз редактировалось: nemos (24.02.2014 10:18), всего редактировалось 6 раз(а)

nemos Пол:Муж

16-Фев-2014 19:19

:good: :good: :good: :super:

nemos Пол:Муж

16-Фев-2014 19:38

На Кинопоиске сериал пока отсутствует. Появится, сделаю ссылочку.

nemos Пол:Муж

24-Фев-2014 10:19

Кинопоиск ссылку обновил! :D

Яндекс.Метрика powered by Sphinx


В Н И М А Н И Е
Сайт не распространяет и не хранит электронные версии произведений, а лишь бесплатно и без коммерческой выгоды (не требуя взамен платы,
SMS и т.д.) предоставляет доступ к создаваемому пользователями каталогу ссылок на торрент-файлы, которые содержат только списки хеш-сумм.
Убедительная просьба с жалобами обращаться напрямую к пользователю, разместившему торрент файл.

Вверх