Loading...
Error

Воскрешая мертвецов / Bringing Out the Dead (Мартин Скорсезе / Martin Scorsese) [1999 г., триллер, драма, WEB-DLRip] Dub

Статистика раздачи
Размер:  1,45 GB   |    Зарегистрирован:  2 года 9 месяцев   |    Скачан:  3 раза

Полного источника не было: 2 года 7 месяцев

Сидов:  0  |  0 KB/s  ]   Личеров:  0  |  0 KB/s  ]

* - сиды/пиры с внешних источников

   
 
Автор Сообщение

garry Пол:Муж

16-Фев-2014 01:53

Воскрешая мертвецов / Bringing Out the Dead


Год выпуска: 1999
Жанр: триллер, драма
Страна: США
Режиссер: Мартин Скорсезе / Martin Scorsese
В ролях: Николас Кейдж, Патриция Аркетт, Джон Гудман, Винг Реймз, Том Сайзмор, Марк Энтони, Мэри Бет Хёрт, Клифф Кёртис, Нестор Серрано, Аида Туртурро
Сюжет фильма:
48 часов из жизни парамедика. Однажды прозванный "отец Фрэнк" за его усилия по спасению жизней, Фрэнк везде видит призраков тех, кого он не смог спасти. Он пробовал все возможное, чтобы его уволили, притворяясь больным, принимает вызовы с задержкой, где ему, возможно, придется столкнуться с еще одной жертвой, которой он не сможет помочь, но не может бросить работу самостоятельно.

  • Мировая премьера: 22 октября 1999
  • Российская премьера: 9 декабря 2000, «Каскад»


Качество видео: WEB-DLRip

Продолжительность: 2:01:01
Формат: AVI
Видео: XviD, 720x304, 1517 kbps
Аудио: русский, дублированный, AC3 2.0, 192 kbps

Код:

General
 Complete name                            : C:\Users\Downloads\Encode\Voskreshaja_mertvecov.WEB-DLRip.[R.G.AllFilms].avi
 Format                                   : AVI
 Format/Info                              : Audio Video Interleave
 File size                                : 1.45 GiB
 Duration                                 : 2h 1mn
 Overall bit rate                         : 1 719 Kbps
 Movie name                               : Bringing Out the Dead (1999) - WEB-DLRip by Juvelir
 Writing application                      : VirtualDubMod 1.5.10.3 | www.virtualdub-fr.org || (build 2550/release)

Video
 ID                                       : 0
 Format                                   : MPEG-4 Visual
 Format profile                           : Advanced Simple@L5
 Format settings, BVOP                    : 2
 Format settings, QPel                    : No
 Format settings, GMC                     : No warppoints
 Format settings, Matrix                  : Custom
 Codec ID                                 : XVID
 Codec ID/Hint                            : XviD
 Duration                                 : 2h 1mn
 Bit rate                                 : 1 518 Kbps
 Width                                    : 720 pixels
 Height                                   : 304 pixels
 Display aspect ratio                     : 2.35:1
 Frame rate                               : 23.976 fps
 Color space                              : YUV
 Chroma subsampling                       : 4:2:0
 Bit depth                                : 8 bits
 Scan type                                : Progressive
 Compression mode                         : Lossy
 Bits/(Pixel*Frame)                       : 0.289
 Stream size                              : 1.28 GiB (88%)
 Writing library                          : XviD 73

Audio
 ID                                       : 1
 Format                                   : AC-3
 Format/Info                              : Audio Coding 3
 Mode extension                           : CM (complete main)
 Format settings, Endianness              : Big
 Codec ID                                 : 2000
 Duration                                 : 2h 1mn
 Bit rate mode                            : Constant
 Bit rate                                 : 192 Kbps
 Channel(s)                               : 2 channels
 Channel positions                        : Front: L R
 Sampling rate                            : 48.0 KHz
 Bit depth                                : 16 bits
 Compression mode                         : Lossy
 Stream size                              : 166 MiB (11%)
 Alignment                                : Split accross interleaves
 Interleave, duration                     : 42 ms (1.00 video frame)
 Interleave, preload duration             : 500 ms
Семпл: http://yadi.sk/d/fn24N_4i2hGWO

Релиз: Ювелиp

picpicpic
Для увеличения картинки щелкните мышкой по превью

Этот торрент недоступен для скачивания без регистрации, однако доступен по публичной magnet-ссылке (источники с публичных трекеров). Перед использованием ссылки прочтите, пожалуйста Пользовательское соглашение, а также как можно дольше оставайтесь на раздаче! Для того, чтобы скачать сам торрент-файл (который видит больше источников), а также для того, чтобы поблагодарить релизера, вам необходимо зарегистрироваться. Если регистрироваться лень - вы можете также попробовать скачать релиз по нашим партнерским ссылкам ниже.

[underverse.su].t36379.torrent
Трекер: Зарегистрирован   [ 16.02.2014 01:53 ]  

Статус: проверено (by garry at 16.02.2014 16:40)
Поблагодарили: пока никто не поблагодарил...
Тип торрента: публичный - доступные источники с открытых трекеров: 
Размер: 1,45 GB (занимает 1/3 DVDR, для записи нужно 1 болванка DVDR/RW)
 
 
Похожие темы
Форум Тема Автор Торрент Отв. Посл. сооб.
Зарубежное кино [DVDRip, Low-Res HDRip, и т.д.] Воскрешая мертвецов / Bringing Out the Dead (Мартин Скорсезе / Martin Scorsese) [1999 г., триллер, драма, DVDRip-AVC] Dub + Original garry
15 | 0

0 | 1136

8

16.02.2014 01:59

Зарубежное кино [HDDVDRip / BDRip / WEB-DL / HDTV 1080/720р] Воскрешая мертвецов / Bringing Out the Dead (Мартин Скорсезе) [1999 г., триллер, драма, WEB-DL 720p] Dub + 2xAVO + Original garry
12 | 0

0 | 1194

2

16.02.2014 01:46


Яндекс.Метрика powered by Sphinx


В Н И М А Н И Е
Сайт не распространяет и не хранит электронные версии произведений, а лишь бесплатно и без коммерческой выгоды (не требуя взамен платы,
SMS и т.д.) предоставляет доступ к создаваемому пользователями каталогу ссылок на торрент-файлы, которые содержат только списки хеш-сумм.
Убедительная просьба с жалобами обращаться напрямую к пользователю, разместившему торрент файл.

Вверх