Loading...
Error

Тор 2: Царство тьмы / Thor: The Dark World (Алан Тейлор) [2013 г., фэнтези, боевик, приключения, BDRip] Dub + Original + Sub (RusForced,Eng) HQ Underverse

Статистика раздачи
Размер:  2,17 GB   |    Зарегистрирован:  2 года 9 месяцев   |    Скачан:  76 раз

Полного источника не было: 10 месяцев

Сидов:  0  |  0 KB/s  ]   Личеров:  0  |  0 KB/s  ]

* - сиды/пиры с внешних источников

   
 
Автор Сообщение

HQ Underverse 

15-Фев-2014 18:54

Тор 2: Царство тьмы / Thor: The Dark World


Год выпуска: 2013
Жанр: фэнтези, боевик, приключения
Страна: США
Режиссер: Алан Тейлор
В ролях: Крис Хемсворт, Натали Портман, Том Хиддлстон, Энтони Хопкинс, Кристофер Экклстон, Джейми Александер, Закари Левай, Рэй Стивенсон, Таданобу Асано, Идрис Эльба
Сюжет фильма:
Продолжение приключений одного из членов команды Мстителей, скандинавского бога Тора, которому на этот раз в одиночку предстоит защитить Землю и все девять миров от нашествия неизвестного врага.Могучему Тору предстоит вновь сразиться за восстановление порядка в галактике, встретившись лицом к лицу с древней инопланетной расой, ведомой злодеем Малекитом, жаждущим установить в девяти мирах власть тьмы. Столкнувшись с врагом, более могущественным чем сам Один и всё воинство Асгарда, Тор должен собрать силы для решающей битвы. Его ждёт опасное путешествие и долгожданная встреча со своей земной возлюбленной Джейн Фостер. Сможет ли Тор рискнуть самым дорогим, чтобы не дать тьме воцариться на просторах вселенной?

  • Мировая премьера: 30 октября 2013
  • Российская премьера: 7 ноября 2013, «WDSSPR» 3D

|
Качество видео: BDRip

Продолжительность: 01:52:03
Формат: avi
Видео: XviD, 720x304, 1988 kbps
Аудио #1: русский, дублированный [лицензия iTunes Russia], AC3 5.1, 384 kbps
Аудио #2: английский, оригинал, AC3 5.1, 384 kbps
Субтитры #1: внешние, SRT, английский
Субтитры #2: внешние, SRT, русский (FORCED)

Код:

General
Complete name                    : Z:\windoza-share\Тор 2 Царство Тьмы\Thor.2.2013.BDRip.XviD.AC3.Rus.D.Eng.O.HQ.Underverse.avi
Format                           : AVI
Format/Info                      : Audio Video Interleave
Format profile                   : OpenDML
File size                        : 2.17 GiB
Duration                         : 1h 52mn
Overall bit rate                 : 2 774 Kbps
Writing application              : VirtualDubMod 1.5.10.2 (build 2540/release)
Writing library                  : VirtualDubMod build 2540/release

Video
ID                               : 0
Format                           : MPEG-4 Visual
Format profile                   : Streaming Video@L1
Format settings, BVOP            : Yes
Format settings, QPel            : No
Format settings, GMC             : No warppoints
Format settings, Matrix          : Custom
Muxing mode                      : Packed bitstream
Codec ID                         : XVID
Codec ID/Hint                    : XviD
Duration                         : 1h 52mn
Bit rate                         : 1 988 Kbps
Width                            : 720 pixels
Height                           : 304 pixels
Display aspect ratio             : 2.35
Frame rate                       : 23.976 fps
Resolution                       : 24 bits
Colorimetry                      : 4:2:0
Scan type                        : Progressive
Bits/(Pixel*Frame)               : 0.379
Stream size                      : 1.56 GiB (72%)
Writing library                  : XviD 64

Audio #1
ID                               : 1
Format                           : AC-3
Format/Info                      : Audio Coding 3
Codec ID                         : 2000
Duration                         : 1h 52mn
Bit rate mode                    : Constant
Bit rate                         : 384 Kbps
Channel(s)                       : 6 channels
Channel positions                : Front: L C R, Surround: L R, LFE
Sampling rate                    : 48.0 KHz
Stream size                      : 308 MiB (14%)
Alignment                        : Split accross interleaves
Interleave, duration             : 42 ms (1.00 video frame)
Interleave, preload duration     : 500 ms

Audio #2
ID                               : 2
Format                           : AC-3
Format/Info                      : Audio Coding 3
Codec ID                         : 2000
Duration                         : 1h 52mn
Bit rate mode                    : Constant
Bit rate                         : 384 Kbps
Channel(s)                       : 6 channels
Channel positions                : Front: L C R, Surround: L R, LFE
Sampling rate                    : 48.0 KHz
Stream size                      : 308 MiB (14%)
Alignment                        : Split accross interleaves
Interleave, duration             : 42 ms (1.00 video frame)
Interleave, preload duration     : 500 ms

Релиз группы:

Этот торрент недоступен для скачивания без регистрации, однако доступен по публичной magnet-ссылке (источники с публичных трекеров). Перед использованием ссылки прочтите, пожалуйста Пользовательское соглашение, а также как можно дольше оставайтесь на раздаче! Для того, чтобы скачать сам торрент-файл (который видит больше источников), а также для того, чтобы поблагодарить релизера, вам необходимо зарегистрироваться. Если регистрироваться лень - вы можете также попробовать скачать релиз по нашим партнерским ссылкам ниже.

[underverse.su].t36363.torrent
Трекер: Зарегистрирован   [ 15.02.2014 18:54 ]  

Статус: проверено (by HQ Underverse at 15.02.2014 19:00)
Поблагодарили: 2 человека
Тип торрента: публичный - доступные источники с открытых трекеров: 
Размер: 2,17 GB (занимает 1/2 DVDR, для записи нужно 1 болванка DVDR/RW)
 
 
Похожие темы
Форум Тема Автор Торрент Отв. Посл. сооб.
Зарубежное кино [DVDRip, Low-Res HDRip, и т.д.] Тор 2: Царство тьмы / Thor: The Dark World (Алан Тейлор) [2013 г., фэнтези, боевик, приключения, HDRip] Dub (iTunes) + Original (Eng) 90ytr90
22 | 1

0 | 1734

33

11.02.2014 05:08

Зарубежное кино [DVDRip, Low-Res HDRip, и т.д.] Тор 2: Царство тьмы / Thor: The Dark World (Алан Тейлор / Alan Taylor) [2013 г., фэнтези, боевик, приключения, BDRip-AVC] Dub + Sub (Rus, Eng) 90ytr90
3 | 0

0 | 2375

147

14.02.2014 09:25

Зарубежное кино [DVDRip, Low-Res HDRip, и т.д.] Тор 2: Царство тьмы / Thor: The Dark World (Алан Тейлор / Alan Taylor) [2013 г., фэнтези, боевик, приключения, BDRip-AVC] Dub + Original (Eng) + Sub (Rus, Eng) 90ytr90
7 | 0

0 | 801

33

14.02.2014 09:35

Зарубежное кино [DVDRip, Low-Res HDRip, и т.д.] Тор 2: Царство тьмы / Thor: The Dark World (Алан Тейлор / Alan Taylor) [2013 г., фэнтези, боевик, приключения, HDRip] Dub + Sub (Rus) 90ytr90
73 | 3

0 | 1710

102

14.02.2014 14:19

Зарубежное кино [DVDRip, Low-Res HDRip, и т.д.] Тор 2: Царство тьмы / Thor: The Dark World (Алан Тейлор / Alan Taylor) [2013 г., фэнтези, боевик, приключения, BDRip] Dub + Original (Eng) 90ytr90
44 | 1

1 | 1642

60

04.04.2014 10:39

Зарубежное кино [DVD / HDDVD / BD / Remux] Тор 2: Царство тьмы / Thor: The Dark World (Алан Тейлор) [2013 г., Фэнтези, боевик, приключения, DVD-9] Dub + Original + Subs ultarasbarcelona
0 | 0

0 | 983

9

10.05.2015 10:27

Зарубежное кино [HDDVDRip / BDRip / WEB-DL / HDTV 1080/720р] Тор 2: Царство тьмы / Thor: The Dark World (Алан Тейлор / Alan Taylor) [2013 г., фэнтези, боевик, приключения, BDRip 720р] Dub + Original (Eng) + Sub (Rus, Eng) 90ytr90
38 | 1

0 | 634

37

14.02.2014 09:18

Зарубежное кино [HDDVDRip / BDRip / WEB-DL / HDTV 1080/720р] Тор 2: Царство тьмы / Thor: The Dark World (Алан Тейлор / Alan Taylor) [2013 г., фэнтези, боевик, приключения, BDRip 1080p] Dub + Original (Eng) + Sub (Rus, Eng) 90ytr90
30 | 1

0 | 1692

68

14.02.2014 16:35


Яндекс.Метрика powered by Sphinx


В Н И М А Н И Е
Сайт не распространяет и не хранит электронные версии произведений, а лишь бесплатно и без коммерческой выгоды (не требуя взамен платы,
SMS и т.д.) предоставляет доступ к создаваемому пользователями каталогу ссылок на торрент-файлы, которые содержат только списки хеш-сумм.
Убедительная просьба с жалобами обращаться напрямую к пользователю, разместившему торрент файл.

Вверх