Loading...
Error

Анна Николь / Anna Nicole (Мэри Хэррон) [2013 г., драма, WEB-DLRip-AVC] MVO + Original + Sub (Eng)

Статистика раздачи
Размер:  1,45 GB   |    Зарегистрирован:  3 года 8 месяцев   |    Скачан:  3 раза

Полного источника не было: 1 год

Сидов:  0  |  0 KB/s  ]   Личеров:  0  |  0 KB/s  ]

* - сиды/пиры с внешних источников

   
 
Автор Сообщение

Паукан Пол:Муж

14-Фев-2014 15:41

Анна Николь / Anna Nicole


Страна: США
Жанр: драма
Год выпуска: 2013
Продолжительность: 01:28:37

Перевод: Профессиональный (многоголосый закадровый)
Cубтитры: английские
Оригинальная аудиодорожка: Английский

Режиссер: Мэри Хэррон / Mary Harron

В ролях: Агнес Бракнер, Мартин Ландау, Адам Голдберг, Грэхэм Патрик Мартин, Кэри Элвис, Вирджиния Мэдсен, Джулия Уолтерс, Алекса Блэр, Люк Дональдсон, Калеб Баруик

Описание:
Фильм «Анна Николь» даст представление, что кроется за так называемой успешной жизнью людей, называемых кинозвездами. Лучезарная улыбка очень часто скрывает ужасное чувство одиночества.



Автор рипа: Stalker oK

Сэмпл: multi-up

Качество видео: WEB-DLRip-AVC [Anna.Nicole.2013.P.720p.WEB-DL.H264]
Формат видео: MKV
Видео кодек: AVC
Аудио кодек: AC3
Видео: 1769 Кбит/сек, 984*552 (16:9), в 23,976 кадр/сек, AVC
Аудио #1: Russian, 192 Кбит/сек, 48,0 КГц, 16 бит, 2 канала(ов), AC-3
Аудио #2: English, 384 Кбит/сек, 48,0 КГц, 16 бит, 6 канала(ов), AC-3
Общее
Уникальный идентификатор : 180727592810210187010804317416705999302 (0x87F6DE47671FD2A18647FEFA2033C1C6)
Полное имя : Anna NicoleAnna_Nicole_2013_WEB-DLRip_AVC_MVO__stalkerok_new-team.mkv
Формат : Matroska
Размер файла : 1,45 Гбайт
Продолжительность : 1 ч. 28 м.
Общий поток : 2347 Кбит/сек
Название фильма : Anna Nicole (2013) (New-Team) (Rip by Stalker oK)
Дата кодирования : UTC 2014-02-14 11:23:27
Программа кодирования : mkvmerge v6.2.0 ('Promised Land') built on Apr 28 2013 12:22:01
Библиотека кодирования : libebml v1.3.0 + libmatroska v1.4.0

Видео
Идентификатор : 1
Формат : AVC
Формат/Информация : Advanced Video Codec
Профиль формата : High@L4.1
Параметр CABAC формата : Да
Параметр ReFrames формата : 12 кадры
Идентификатор кодека : V_MPEG4/ISO/AVC
Продолжительность : 1 ч. 28 м.
Битрейт : 1769 Кбит/сек
Ширина : 984 пикс.
Высота : 552 пикс.
Соотношение сторон : 16:9
Частота кадров : 23,976 кадр/сек
Цветовое пространство : YUV
Подвыборка цветности : 4:2:0
Битовая глубина : 8 бит
Тип развёртки : Прогрессивная
Бит/(Пиксели*Кадры) : 0.136
Размер потока : 1,07 Гбайт (73%)
Библиотека кодирования : x264 core 138 r2358 9e941d1
Настройки программы : cabac=1 / ref=12 / deblock=1:-2:-1 / analyse=0x3:0x133 / me=umh / subme=10 / psy=1 / psy_rd=1.05:0.15 / mixed_ref=1 / me_range=48 / chroma_me=1 / trellis=2 / 8x8dct=1 / cqm=0 / deadzone=21,11 / fast_pskip=0 / chroma_qp_offset=-3 / threads=6 / lookahead_threads=1 / sliced_threads=0 / nr=0 / decimate=0 / interlaced=0 / bluray_compat=0 / constrained_intra=0 / bframes=12 / b_pyramid=2 / b_adapt=2 / b_bias=0 / direct=3 / weightb=1 / open_gop=0 / weightp=2 / keyint=240 / keyint_min=23 / scenecut=40 / intra_refresh=0 / rc_lookahead=80 / rc=2pass / mbtree=1 / bitrate=1769 / ratetol=1.0 / qcomp=0.65 / qpmin=0 / qpmax=69 / qpstep=4 / cplxblur=20.0 / qblur=0.5 / vbv_maxrate=17000 / vbv_bufsize=20000 / nal_hrd=none / ip_ratio=1.40 / aq=2:1.00
Язык : English

Аудио #1
Идентификатор : 2
Формат : AC-3
Формат/Информация : Audio Coding 3
Расширение режима : CM (complete main)
Идентификатор кодека : A_AC3
Продолжительность : 1 ч. 28 м.
Вид битрейта : Постоянный
Битрейт : 192 Кбит/сек
Канал(ы) : 2 канала(ов)
Расположение каналов : Front: L R
Частота : 48,0 КГц
Битовая глубина : 16 бит
Метод сжатия : С потерями
Размер потока : 122 Мбайт (8%)
Язык : Russian

Аудио #2
Идентификатор : 3
Формат : AC-3
Формат/Информация : Audio Coding 3
Расширение режима : CM (complete main)
Идентификатор кодека : A_AC3
Продолжительность : 1 ч. 28 м.
Вид битрейта : Постоянный
Битрейт : 384 Кбит/сек
Канал(ы) : 6 канала(ов)
Расположение каналов : Front: L C R, Side: L R, LFE
Частота : 48,0 КГц
Битовая глубина : 16 бит
Метод сжатия : С потерями
Размер потока : 243 Мбайт (16%)
Язык : English

Текст
Идентификатор : 4
Формат : UTF-8
Идентификатор кодека : S_TEXT/UTF8
Идентификатор кодека/Информация : UTF-8 Plain Text
Язык : English

Меню
00:00:00.000 : en:1
00:05:54.000 : en:2
00:11:14.000 : en:3
00:17:19.000 : en:4
00:24:03.000 : en:5
00:28:58.000 : en:6
00:32:53.000 : en:7
00:40:03.000 : en:8
00:45:38.000 : en:9
00:51:05.000 : en:10
00:56:53.000 : en:11
01:03:55.000 : en:12
01:08:55.000 : en:13
01:14:05.000 : en:14
01:18:08.000 : en:15
01:20:45.000 : en:16
pic pic pic
Для увеличения картинки щелкните мышкой по превью

Этот торрент недоступен для скачивания без регистрации, однако доступен по публичной magnet-ссылке (источники с публичных трекеров). Перед использованием ссылки прочтите, пожалуйста Пользовательское соглашение, а также как можно дольше оставайтесь на раздаче! Для того, чтобы скачать сам торрент-файл (который видит больше источников), а также для того, чтобы поблагодарить релизера, вам необходимо зарегистрироваться. Если регистрироваться лень - вы можете также попробовать скачать релиз по нашим партнерским ссылкам ниже.

[underverse.su].t36324.torrent
Трекер: Зарегистрирован   [ 14.02.2014 15:41 ]  

Статус: проверено (by Паукан at 14.02.2014 15:42)
Поблагодарили: пока никто не поблагодарил...
Тип торрента: публичный - доступные источники с открытых трекеров: 
Размер: 1,45 GB (занимает 1/3 DVDR, для записи нужно 1 болванка DVDR/RW)
 
 
Похожие темы
Форум Тема Автор Торрент Отв. Посл. сооб.
Зарубежное кино [DVDRip, Low-Res HDRip, и т.д.] Анна Николь / Anna Nicole (Мэри Хэррон) [2013 г., драма, WEB-DLRip] MVO 90ytr90
6 | 0

0 | 1317

17

12.02.2014 16:23


Яндекс.Метрика powered by Sphinx


В Н И М А Н И Е
Сайт не распространяет и не хранит электронные версии произведений, а лишь бесплатно и без коммерческой выгоды (не требуя взамен платы,
SMS и т.д.) предоставляет доступ к создаваемому пользователями каталогу ссылок на торрент-файлы, которые содержат только списки хеш-сумм.
Убедительная просьба с жалобами обращаться напрямую к пользователю, разместившему торрент файл.

Вверх