Loading...
Error

Гравитация / Gravity (Альфонсо Куарон / Alfonso Cuaron) [2013 г., фантастика, триллер, драма, BDRip] Dub HQ Underverse

Статистика раздачи
Размер:  1,46 GB   |    Зарегистрирован:  2 года 9 месяцев   |    Скачан:  103 раза

Полного источника не было: 50 минут

Сидов:  0  |  0 KB/s  ]   Личеров:  0  |  0 KB/s  ]

* - сиды/пиры с внешних источников

   
 
Автор Сообщение

HQ Underverse 

14-Фев-2014 00:42

Гравитация / Gravity


Год выпуска: 2013
Жанр: фантастика, триллер, драма
Страна: США , Великобритания
Режиссер: Альфонсо Куарон / Alfonso Cuaron
В ролях: Сандра Буллок, Джордж Клуни, Эд Харрис, Орто Игнатиуссен, Фалдут Шарма, Эми Уоррен, Башер Саваж, Дженис Ахерн
Сюжет фильма:
Доктор Райан Стоун, блестящий специалист в области медицинского инжиниринга, отправляется в свою первую космическую миссию под командованием ветерана астронавтики Мэтта Ковальски, для которого этот полет — последний перед отставкой. Но во время, казалось бы, рутинной работы за бортом случается катастрофа. Шаттл уничтожен, а Стоун и Ковальски остаются совершенно одни; они находятся в связке друг с другом, и все, что они могут, — это двигаться по орбите в абсолютно черном пространстве без всякой связи с Землей и какой-либо надежды на спасение.

  • Мировая премьера: 28 августа 2013
  • Российская премьера: 3 октября 2013, «Каро-Премьер» 3D


Качество видео: BDRip

Продолжительность: 01:30:58
Формат: avi
Видео: XviD, 720x304, 1844 kbps
Аудио: русский, дублированный [лицензия], AC3 5.1, 448 kbps

Код:

General
Complete name                    : D:\Video\Movies\Releases\Gravity.2013.BDRip.XviD.AC3.Rus.D.HQ.Underverse.avi
Format                           : AVI
Format/Info                      : Audio Video Interleave
File size                        : 1.46 GiB
Duration                         : 1h 30mn
Overall bit rate                 : 2 302 Kbps
Writing application              : VirtualDubMod 1.5.10.2 (build 2540/release)
Writing library                  : VirtualDubMod build 2540/release

Video
ID                               : 0
Format                           : MPEG-4 Visual
Format profile                   : Streaming Video@L1
Format settings, BVOP            : Yes
Format settings, QPel            : No
Format settings, GMC             : No warppoints
Format settings, Matrix          : Custom
Muxing mode                      : Packed bitstream
Codec ID                         : XVID
Codec ID/Hint                    : XviD
Duration                         : 1h 30mn
Bit rate                         : 1 844 Kbps
Width                            : 720 pixels
Height                           : 304 pixels
Display aspect ratio             : 2.35
Frame rate                       : 23.976 fps
Resolution                       : 24 bits
Colorimetry                      : 4:2:0
Scan type                        : Progressive
Bits/(Pixel*Frame)               : 0.351
Stream size                      : 1.17 GiB (80%)
Writing library                  : XviD 64

Audio
ID                               : 1
Format                           : AC-3
Format/Info                      : Audio Coding 3
Codec ID                         : 2000
Duration                         : 1h 30mn
Bit rate mode                    : Constant
Bit rate                         : 448 Kbps
Channel(s)                       : 6 channels
Channel positions                : Front: L C R, Surround: L R, LFE
Sampling rate                    : 48.0 KHz
Stream size                      : 292 MiB (19%)
Alignment                        : Split accross interleaves
Interleave, duration             : 42 ms (1.00 video frame)
Interleave, preload duration     : 500 ms

Семпл: http://multi-up.com/950700

Релиз группы:

picpicpic
Для увеличения картинки щелкните мышкой по превью

Этот торрент недоступен для скачивания без регистрации, однако доступен по публичной magnet-ссылке (источники с публичных трекеров). Перед использованием ссылки прочтите, пожалуйста Пользовательское соглашение, а также как можно дольше оставайтесь на раздаче! Для того, чтобы скачать сам торрент-файл (который видит больше источников), а также для того, чтобы поблагодарить релизера, вам необходимо зарегистрироваться. Если регистрироваться лень - вы можете также попробовать скачать релиз по нашим партнерским ссылкам ниже.

[underverse.su].t36306.torrent
Трекер: Зарегистрирован   [ 14.02.2014 00:42 ]  

Статус: проверено (by garry at 14.02.2014 11:08)
Поблагодарили: 6 человек
Тип торрента: публичный - доступные источники с открытых трекеров: 
Размер: 1,46 GB (занимает 0,33 DVDR, для записи нужно 1 болванка DVDR/RW)
 
 
Похожие темы
Форум Тема Автор Торрент Отв. Посл. сооб.
Зарубежное кино [DVDRip, Low-Res HDRip, и т.д.] Гравитация / Gravity (Альфонсо Куарон / Alfonso Cuaron) [2013 г., фантастика, триллер, драма, детектив, HDRip] Dub (iTunes) 90ytr90
0 | 0

0 | 1080

37

07.02.2014 05:43

Зарубежное кино [DVD / HDDVD / BD / Remux] Гравитация / Gravity (Альфонсо Куарон / Alfonso Cuaron) [2013, фантастика, триллер, драма, Blu-ray disc] Dub + Dub (Ukr) + Sub Rus, Eng + Original Eng uzi2009
18 | 3

0 | 1513

7

14.02.2014 18:21

Зарубежное кино [DVD / HDDVD / BD / Remux] Гравитация / Gravity (Альфонсо Куарон / Alfonso Cuaron) [2013, США, Великобритания, фантастика, триллер, драма, BDRemux 1080p] Dub + Ukr + VO (Есарев) + Sub Rus, Eng + Original Eng uzi2009
90 | 4

0 | 721

17

12.03.2014 12:57

Зарубежное кино [HDDVDRip / BDRip / WEB-DL / HDTV 1080/720р] Гравитация / Gravity (Альфонсо Куарон / Alfonso Cuaron) [2013 г., фантастика, триллер, драма, детектив, BDRip 1080p] Dub (iTunes) + Original (Eng) + Subs 90ytr90
1 | 0

0 | 1919

138

07.02.2014 06:05

Зарубежное кино [HDDVDRip / BDRip / WEB-DL / HDTV 1080/720р] Гравитация / Gravity (Альфонсо Куарон / Alfonso Cuaron) [2013 г., фантастика, триллер, драма, BDRip 720p] Dub + Ukr + Original (Eng) + Subs 90ytr90
0 | 0

0 | 506

25

13.03.2014 20:02

Зарубежное кино [HDDVDRip / BDRip / WEB-DL / HDTV 1080/720р] Гравитация / Gravity (Альфонсо Куарон / Alfonso Cuaron) [2013 г., фантастика, триллер, драма, BDRip 720p] Dub (Rus) + 4xAVO (Немахов, Горчаков, Живов, Есарев) + Ukr + Original (Eng) + Subs 90ytr90
2 | 0

0 | 605

14

03.03.2015 20:11


Яндекс.Метрика powered by Sphinx


В Н И М А Н И Е
Сайт не распространяет и не хранит электронные версии произведений, а лишь бесплатно и без коммерческой выгоды (не требуя взамен платы,
SMS и т.д.) предоставляет доступ к создаваемому пользователями каталогу ссылок на торрент-файлы, которые содержат только списки хеш-сумм.
Убедительная просьба с жалобами обращаться напрямую к пользователю, разместившему торрент файл.

Вверх