Loading...
Error

Доктор Смерть (1-4 серии из 4) (Александр Назаров) [2014 г., драма, криминал, SatRip]

Статистика раздачи
Размер:  2,38 GB   |    Зарегистрирован:  2 года 9 месяцев   |    Скачан:  24 раза

Полного источника не было: 4 месяца 28 дней

Сидов:  0  |  0 KB/s  ]   Личеров:  0  |  0 KB/s  ]

* - сиды/пиры с внешних источников

   
 
Автор Сообщение

nemos Пол:Муж

11-Фев-2014 09:04

Доктор Смерть


Год выпуска: 2014
Жанр: драма, криминал
Страна: Россия
Режиссер: Александр Назаров
В ролях: Юрий Чурсин, Светлана Иванова, Дмитрий Ульянов, Михаил Горевой, Юрий Батурин, Владимир Гостюхин, Сергей Колтаков
Сюжет фильма:
Успешный и талантливый врач Егор Тюльпанов не подозревал, что его жизнь изменится в одночасье. После необоснованного обвинения в грубой врачебной ошибке кардиохирург был вынужден оставить практику в престижной клинике и устроиться на работу в обычную ветеринарную лечебницу. Но на этом неурядицы не закончились: на операционном столе умерла собака дочери чиновника. Узнав, что у Тюльпанова фальшивый диплом ветеринарного врача, прокуратура возбудила уголовное дело. К профессиональным неудачам добавились проблемы и личного характера. Жена Егора ушла к его лучшему другу, а родной брат попытался повесить на него собственный карточный долг…


Качество видео: SatRip

Продолжительность: 00:44:44 серия
Формат: AVI
Видео: XviD, 720x448, 1788 kbps
Аудио: русский, MP3 2.0, 128 kbps

Код:

D:\Фильмы (роздача)\Doktor.Smertj.2013.SATRip\Doktor.Smertj.04.2013.SATRip.KZ.avi
   General
      Complete name : D:\Фильмы (роздача)\Doktor.Smertj.2013.SATRip\Doktor.Smertj.04.2013.SATRip.KZ.avi
      Format : AVI
      Format/Info : Audio Video Interleave
      File size : 616 MiB
      Duration : 44mn 44s
      Overall bit rate : 1 926 Kbps
      Writing library : VirtualDub build 32507/release
   Video #0
      ID : 0
      Format : MPEG-4 Visual
      Format profile : Advanced Simple@L5
      Format settings, BVOP : 2
      Format settings, QPel : No
      Format settings, GMC : No warppoints
      Format settings, Matrix : Default (MPEG)
      Codec ID : XVID
      Codec ID/Hint : XviD
      Duration : 44mn 44s
      Bit rate : 1 788 Kbps
      Width : 720 pixels
      Height : 448 pixels
      Display aspect ratio : 1.607
      Frame rate : 25.000 fps
      Color space : YUV
      Chroma subsampling : 4:2:0
      Bit depth : 8 bits
      Scan type : Progressive
      Compression mode : Lossy
      Bits/(Pixel*Frame) : 0.222
      Stream size : 572 MiB (93%)
      Writing library : XviD 64
   Audio #1
      ID : 1
      Format : MPEG Audio
      Format version : Version 1
      Format profile : Layer 3
      Mode : Joint stereo
      Codec ID : 55
      Codec ID/Hint : MP3
      Duration : 44mn 44s
      Bit rate mode : Constant
      Bit rate : 128 Kbps
      Channel(s) : 2 channels
      Sampling rate : 48.0 KHz
      Compression mode : Lossy
      Stream size : 41.0 MiB (7%)
      Alignment : Split accross interleaves
      Interleave, duration : 40 ms (1.00 video frame)
      Interleave, preload duration : 500 ms
Семпл: http://multi-up.com/949773

picpicpicpicpicpicpicpicpicpicpicpic
Для увеличения картинки щелкните мышкой по превью

Этот торрент недоступен для скачивания без регистрации, однако доступен по публичной magnet-ссылке (источники с публичных трекеров). Перед использованием ссылки прочтите, пожалуйста Пользовательское соглашение, а также как можно дольше оставайтесь на раздаче! Для того, чтобы скачать сам торрент-файл (который видит больше источников), а также для того, чтобы поблагодарить релизера, вам необходимо зарегистрироваться. Если регистрироваться лень - вы можете также попробовать скачать релиз по нашим партнерским ссылкам ниже.

[underverse.su].t36215.torrent
Трекер: Зарегистрирован   [ 11.02.2014 09:04 ]  

Статус: проверено (by garry at 11.02.2014 13:34)
Поблагодарили: 1 человек
Тип торрента: публичный - доступные источники с открытых трекеров: 
Размер: 2,38 GB (занимает 0,54 DVDR, для записи нужно 1 болванка DVDR/RW)
 
 

nemos Пол:Муж

11-Фев-2014 09:08

:super:

Яндекс.Метрика powered by Sphinx


В Н И М А Н И Е
Сайт не распространяет и не хранит электронные версии произведений, а лишь бесплатно и без коммерческой выгоды (не требуя взамен платы,
SMS и т.д.) предоставляет доступ к создаваемому пользователями каталогу ссылок на торрент-файлы, которые содержат только списки хеш-сумм.
Убедительная просьба с жалобами обращаться напрямую к пользователю, разместившему торрент файл.

Вверх