Loading...
Error

Во все тяжкие / Breaking Bad / Сезон 5 / Cерии 9-16 (Брайан Крэнстон) [2013 г., драма, криминал] DVO (Кубик в Кубе) + original

Статистика раздачи
Размер:  37,12 GB   |    Зарегистрирован:  2 года 9 месяцев   |    Скачан:  13 раз

Полного источника не было: 1 год 3 месяца

Сидов:  0  |  0 KB/s  ]   Личеров:  0  |  0 KB/s  ]

* - сиды/пиры с внешних источников

   
 
Автор Сообщение

Jimmy Пол:Муж

08-Фев-2014 18:22

Во все тяжкие / Breaking Bad

Год выпуска: 2013
Жанр: Драма, Криминал
Страна: США..
Перевод: Професcиональный двухголосый закадровый (Кубик в Кубе)
Cубтитры: Английские
Дата мировой премьеры: 11.08.2013
Режиссер: Брайан Крэнстон
Актеры: Брайан Крэнстон, Анна Ганн, Аарон Пол, Дин Норрис, Бетси Брандт, АрДжей Митт, Боб Оденкёрк
Описание фильма:
Вторая часть 5 сезона популярнейшей криминальной драмы.
Школьный учитель химии Уолтер Уайт узнаёт, что смертельно болен раком лёгких. Учитывая сложное финансовое состояние дел семьи, а так же то, что его сын - инвалид, а жена беременна вторым ребенком, Уолтер решает заняться изготовлением метамфетамина. Для этого он привлекает своего бывшего ученика Джесси Пинкмана.
Количество эпизодов: 8
Продолжительность: ~00:47:21 серия
Качество видео: WEB-DL 1080p
Видео: MKV, 1916x1076, 23.976 fps, ~5100 kbps avg
Звук 1: Audio Rus: 48 kHz, AC3 Dolby Digital, 2/0 (L,R) ~192 kbps avg
Звук 2: Audio Eng: 48 kHz, AC3 Dolby Digital, 3/2 (L,C,R,l,r) + LFE ch, ~384 kbps avg
Общее
Уникальный идентификатор : 245051271124540064234789178725612282139 (0xB85B287909AF1CFDB9A8C69509D2611B)
Полное имя : Breaking.Bad.S05E09.WEB-DL.1080p.CasStudioTV.mkv
Формат : Matroska
Версия формата : Version 4 / Version 2
Размер файла : 1,93 Гбайт
Продолжительность : 47 м.
Общий поток : 5827 Кбит/сек
Дата кодирования : UTC 2013-08-13 15:16:37
Программа кодирования : mkvmerge v6.3.0 ('You can't stop me!') built on Jun 28 2013 20:09:41
Библиотека кодирования : libebml v1.3.0 + libmatroska v1.4.0

Видео
Идентификатор : 1
Формат : AVC
Формат/Информация : Advanced Video Codec
Профиль формата : [url=mailto:High@L4.0]High@L4.0[/url]
Параметр CABAC формата : Да
Параметр ReFrames формата : 4 кадра
Идентификатор кодека : V_MPEG4/ISO/AVC
Продолжительность : 47 м.
Битрейт : 5135 Кбит/сек
Ширина : 1916 пикселей
Высота : 1076 пикселей
Соотношение сторон : 16:9
Частота кадров : 23,976 кадра/сек
Цветовое пространство : YUV
Субдискретизация насыщенности : 4:2:0
Битовая глубина : 8 бит
Тип развёртки : Прогрессивная
Бит/(Пиксели*Кадры) : 0.104
Размер потока : 1,70 Гбайт (88%)
Язык : English
Основные цвета : BT.709-5, BT.1361, IEC 61966-2-4, SMPTE RP177
Характеристики трансфера : BT.709-5, BT.1361
Коэффициенты матрицы : BT.709-5, BT.1361, IEC 61966-2-4 709, SMPTE RP177

Аудио #1
Идентификатор : 2
Формат : AC-3
Формат/Информация : Audio Coding 3
Расширение режима : CM (complete main)
Идентификатор кодека : A_AC3
Продолжительность : 47 м.
Вид битрейта : Постоянный
Битрейт : 192 Кбит/сек
Каналы : 2 канала
Расположение каналов : Front: L R
Частота : 48,0 КГц
Битовая глубина : 16 бит
Метод сжатия : С потерями
Размер потока : 65,0 Мбайт (3%)
Заголовок : кубики
Язык : Russian

Аудио #2
Идентификатор : 3
Формат : AC-3
Формат/Информация : Audio Coding 3
Расширение режима : CM (complete main)
Идентификатор кодека : A_AC3
Продолжительность : 47 м.
Вид битрейта : Постоянный
Битрейт : 384 Кбит/сек
Каналы : 6 каналов
Расположение каналов : Front: L C R, Side: L R, LFE
Частота : 48,0 КГц
Битовая глубина : 16 бит
Метод сжатия : С потерями
Размер потока : 130 Мбайт (7%)
Заголовок : оригинал
Язык : English

Текст
Идентификатор : 4
Формат : UTF-8
Идентификатор кодека : S_TEXT/UTF8
Идентификатор кодека/Информация : UTF-8 Plain Text
Заголовок : CC
Язык : English

Скриншоты:
pic pic pic pic
Для увеличения картинки щелкните мышкой по превью

Этот торрент недоступен для скачивания без регистрации, однако доступен по публичной magnet-ссылке (источники с публичных трекеров). Перед использованием ссылки прочтите, пожалуйста Пользовательское соглашение, а также как можно дольше оставайтесь на раздаче! Для того, чтобы скачать сам торрент-файл (который видит больше источников), а также для того, чтобы поблагодарить релизера, вам необходимо зарегистрироваться. Если регистрироваться лень - вы можете также попробовать скачать релиз по нашим партнерским ссылкам ниже.

[underverse.su].t36147.torrent
Трекер: Зарегистрирован   [ 08.02.2014 18:26 ]  

Статус: проверено (by Jimmy at 08.02.2014 18:26)
Поблагодарили: пока никто не поблагодарил...
Тип торрента: публичный - доступные источники с открытых трекеров: 
Размер: 37,12 GB (занимает 8,48 DVDR, для записи нужно 9 болванок DVDR/RW)
 
 
Похожие темы
Форум Тема Автор Торрент Отв. Посл. сооб.
Зарубежные сериалы Во все тяжкие / Breaking Bad / Сезон: 5 / Серии: 1-8 (16) (Адам Бернштейн, Мишель Максвелл МакЛарен) [2012 г., Криминал, драма, триллер, WEBDLRip] MVO + Original Jimmy
0 | 0

2 | 1340

59

08.10.2012 14:28

Зарубежные сериалы Во все тяжкие / Breaking Bad / Сезон 1 / Серии: 1-7 (7) (Адам Бернштейн) [2008 г., триллер, драма, криминал, WEBDLRip] MVO (LostFilm) Jimmy
13 | 16

0 | 1936

175

15.12.2012 16:48

Зарубежные сериалы [BD / Remux / BDRip / WEB-DL / HDTV 1080/720р] Во все тяжкие / Breaking Bad / Сезон 4 / Серии: 1-13 (13) (Адам Бернштейн) [2011 г., триллер, драма, криминал, HDTVRip 720p] MVO Alexsandr1029
0 | 0

1 | 863

16

29.12.2013 10:52


Яндекс.Метрика powered by Sphinx


В Н И М А Н И Е
Сайт не распространяет и не хранит электронные версии произведений, а лишь бесплатно и без коммерческой выгоды (не требуя взамен платы,
SMS и т.д.) предоставляет доступ к создаваемому пользователями каталогу ссылок на торрент-файлы, которые содержат только списки хеш-сумм.
Убедительная просьба с жалобами обращаться напрямую к пользователю, разместившему торрент файл.

Вверх