Loading...
Error

Интерны / Сезон: 10 / Серии: 1-20 (181-200) из 20 (Максим Пежемский, Радда Новикова) [2013, Комедия, ситком, SATRip]

Статистика раздачи
Размер:  4,37 GB   |    Зарегистрирован:  2 года 8 месяцев   |    Скачан:  25 раз

Полного источника не было: 11 месяцев

Сидов:  0  |  0 KB/s  ]   Личеров:  0  |  0 KB/s  ]

* - сиды/пиры с внешних источников

   
 
Автор Сообщение

uzi2009 Пол:Муж

07-Фев-2014 21:02

ИНТЕРНЫ - 10

Год выпуска: 2013
Производство: Россия, ТНТ
Жанр: Комедия, ситком
Продолжительность: 00:25:00

Режиссёр: Максим Пежемский , Радда Новикова

В ролях: Иван Охлобыстин, Яна Гурьянова, Илья Глинников, Александр Ильин, Байрон Один Ланд, Светлана Пермякова, Юлия Назаренко-Благая, Вадим Демчог, Светлана Камынина, Юлия Назаренко, Татьяна Лянник, Мария Пирогова, Лидия Арефьева, Максим Артамонов и др.

Описание: В новом 10 сезоне интернов к доктору Быкову прибудут новые совсем зеленые врачи (Интерны), над которыми он начнем глумится так же как и со старыми. Какой сюжет нам приготовили сценаристы на этот раз мы узнаем уже скоро 3 февраля
Сэмпл
Исходник любезно предоставлен "Лeoпoльд"
Качество: SATRip
Формат: AVI
Видео кодек: XviD
Аудио кодек: MP3
Видео: 640x368 (1.74:1), 25 fps, XviD build 50 ~1053 kbps avg, 0.18 bit/pixel
Аудио: 48 kHz, MPEG Layer 3, 2 ch, ~192.00 kbps avg



Код:

Общее
Полное имя                               : D:\Downloads\Интерны 10 SATRip\Interny.S10.E01.2013.SATRip.avi
Формат                                   : AVI
Формат/Информация                        : Audio Video Interleave
Размер файла                             : 223 Мбайт
Продолжительность                        : 24 м.
Общий поток                              : 1256 Кбит/сек
Библиотека кодирования                   : VirtualDub build 32593/release

Видео
Идентификатор                            : 0
Формат                                   : MPEG-4 Visual
Профиль формата                          : Advanced Simple@L5
Параметр BVOP формата                    : 1
Параметр QPel формата                    : Нет
Параметр GMC формата                     : Без точки перехода
Параметр матрицы формата                 : Default (H.263)
Идентификатор кодека                     : XVID
Идентификатор кодека/Подсказка           : XviD
Продолжительность                        : 24 м.
Битрейт                                  : 1054 Кбит/сек
Ширина                                   : 640 пикселей
Высота                                   : 368 пикселей
Соотношение сторон                       : 16:9
Частота кадров                           : 25,000 кадров/сек
Цветовое пространство                    : YUV
Субдискретизация насыщенности            : 4:2:0
Битовая глубина                          : 8 бит
Тип развёртки                            : Прогрессивная
Метод сжатия                             : С потерями
Бит/(Пиксели*Кадры)                      : 0.179
Размер потока                            : 188 Мбайт (84%)
Библиотека кодирования                   : XviD 1.2.1 (UTC 2008-12-04)

Аудио
Идентификатор                            : 1
Формат                                   : MPEG Audio
Версия формата                           : Version 1
Профиль формата                          : Layer 3
Режим                                    : Joint stereo
Идентификатор кодека                     : 55
Идентификатор кодека/Подсказка           : MP3
Продолжительность                        : 24 м.
Вид битрейта                             : Постоянный
Битрейт                                  : 192 Кбит/сек
Каналы                                   : 2 канала
Частота                                  : 48,0 КГц
Метод сжатия                             : С потерями
Размер потока                            : 34,2 Мбайт (15%)
Выравнивание                             : Разделение по промежуткам
Продолжительность промежутка             : 40  мс. (1,00 видеокадр)
Время предзагрузки промежутка            : 500  мс.
pic pic pic pic pic pic pic pic


Внимание! Раздача ведётся путём добавления новых серий; при каждом добавлении создётся новый торрент. Чтобы начать докачку новой серии, пользователям необходимо сделать следующее:
(1) остановить скачивание,
(2) удалить старый торрент у себя из клиента (старые серии удалять не надо),
(3) скачать новый торрент и запустить его у себя в клиенте вместо старого, при этом указать клиенту путь в старую папку куда и должно происходить скачивание новых серий.
Ваш клиент при этом должен произвести хеширование (проверку) старой папки (если не производит сам - помогите ему сделать это), и будет докачивать только те серии которых у вас ещё нет. Старые серии при этом не удаляются, а продолжают раздаваться!
Eсли вы уже удалили старые серии, то предотвратить повторную закачку старых серий можно, отжав галочку в соответсвующих местах при запуске нового торрента. По возможности, желательно не удалять старые серии как можно дольше чтобы релизёр не столько продолжал раздавать старые серии, а смог сконцентрироваться на новых.

Этот торрент недоступен для скачивания без регистрации, однако доступен по публичной magnet-ссылке (источники с публичных трекеров). Перед использованием ссылки прочтите, пожалуйста Пользовательское соглашение, а также как можно дольше оставайтесь на раздаче! Для того, чтобы скачать сам торрент-файл (который видит больше источников), а также для того, чтобы поблагодарить релизера, вам необходимо зарегистрироваться. Если регистрироваться лень - вы можете также попробовать скачать релиз по нашим партнерским ссылкам ниже.

[underverse.su].t36115.torrent
Трекер: Зарегистрирован   [ 11.03.2014 18:16 ]  

Статус: T временная (by 90ytr90 at 29.04.2014 18:38)
Поблагодарили: 3 человека
Тип торрента: публичный - доступные источники с открытых трекеров: 
Размер: 4,37 GB (занимает 1 DVDR, для записи нужно 1 болванка DVDR/RW)
 
 
Похожие темы
Форум Тема Автор Торрент Отв. Посл. сооб.
xUSSR сериалы Интерны / Сезон: 1-6 / Серии: 1-120 (Мaксим Пeжемский, Заур Болотаев, Милан Килибарда, Евгений Невский, Радда Новикова) [2010-2012, Комедия, ситком, DVDRip] uzi2009
0 | 0

0 | 1940

30

21.02.2014 10:52

xUSSR сериалы Интерны / Сезон: 7-8 / Серии: 127-160 (Мaксим Пeжемский, Заур Болотаев, Милан Килибарда, Евгений Невский, Радда Новикова) [2012-2013, Комедия, ситком, SATRip] uzi2009
0 | 0

0 | 1646

36

21.02.2014 10:56

xUSSR сериалы Интерны / Сезон: 9 / Серии: 1-20 (161-180) из 180 (Мaксим Пeжемский, Рaдда Новиковa) [2013, Комедия, ситком, SATRip] uzi2009
0 | 0

0 | 1772

53

21.02.2014 11:02

xUSSR сериалы Интерны / Сезон: 7 / Серии: 121-126 (Мaксим Пeжемский, Заур Болотаев, Милан Килибарда, Евгений Невский, Радда Новикова) [2012, Комедия, ситком, SATRip] garry
0 | 0

0 | 763

14

25.02.2014 04:18

xUSSR сериалы Интерны / Новогодняя Серия (Мaксим Пeжемский, Рaдда Новиковa) [2013, Комедия, ситком, WEB-DLRip] garry
0 | 0

0 | 817

18

25.02.2014 04:45

xUSSR сериалы [BD / Remux / BDRip / WEB-DL / HDTV 1080/720р] Интерны / Серии 1-120 ( Максим Пежемский) [2010-2012 г., комедия, DVD-9 ] bredd82
0 | 2

1 | 1320

9

15.03.2014 18:27

T xUSSR сериалы [BD / Remux / BDRip / WEB-DL / HDTV 1080/720р] Интерны / Сезон: 10 / Серии: 1-20 (181-200) из 20 (Максим Пежемский, Радда Новикова) [2013, Комедия, ситком, WEBRip 720p] uzi2009
0 | 0

9 | 3134

34

07.03.2014 14:07

xUSSR сериалы [BD / Remux / BDRip / WEB-DL / HDTV 1080/720р] Интерны / Новогодняя Серия (Мaксим Пeжемский, Рaдда Новиковa) [2013, Комедия, ситком, WEB-DLRip 720p] uzi2009
0 | 0

1 | 1807

20

22.02.2014 12:10



Последний раз редактировалось: uzi2009 (11.03.2014 18:20), всего редактировалось 4 раз(а)

uzi2009 Пол:Муж

26-Фев-2014 20:25

Добавлены 5, 6, 7, 8, 9, 10, 11, 12, 13, 14, 15 серии !!!

uzi2009 Пол:Муж

03-Мар-2014 15:57

Добавлена 16 серия

uzi2009 Пол:Муж

11-Мар-2014 18:20

Добавлены 17, 18, 19 и 20 серии!!!

90ytr90 

11-Мар-2014 18:35

Цитата:

Interny.S10.E17.F197.2013.SATRip.avi 223.70 MB (234572342)

Interny.S10.E17.F197.2013.SATRip..avi 823.01 KB (842764)
Будем надеяться, что к следующей серии этот "глюк" пропадет.

-Colonel- Пол:Муж

15-Мар-2014 13:35


Яндекс.Метрика powered by Sphinx


В Н И М А Н И Е
Сайт не распространяет и не хранит электронные версии произведений, а лишь бесплатно и без коммерческой выгоды (не требуя взамен платы,
SMS и т.д.) предоставляет доступ к создаваемому пользователями каталогу ссылок на торрент-файлы, которые содержат только списки хеш-сумм.
Убедительная просьба с жалобами обращаться напрямую к пользователю, разместившему торрент файл.

Вверх