Loading...
Error

Сезон убийц / Killing Season (Марк Стивен Джонсон) [2013 г., триллер, драма, боевик, BDRip-AVC] MVO + Original (Eng) + Subs

Статистика раздачи
Размер:  1,46 GB   |    Зарегистрирован:  2 года 9 месяцев   |    Скачан:  10 раз

Полного источника не было: 8 месяцев

Сидов:  0  |  0 KB/s  ]   Личеров:  0  |  0 KB/s  ]

* - сиды/пиры с внешних источников

   
 
Автор Сообщение

IronMan Пол:Муж

07-Фев-2014 20:26

Сезон убийц / Killing Season


Год выпуска: 2013
Жанр: триллер, драма, боевик
Страна: США , Бельгия
Режиссер: Марк Стивен Джонсон
В ролях: Джон Траволта, Роберт Де Ниро, Майло Вентимилья, Элизабет Олин



Сюжет фильма:
История о ветеранах войны в Боснии — американце и сербе, которые, спустя много лет после событий в Европе, устраивают свою личную Третью мировую войну, пытаясь свести счеты.


  • Мировая премьера: 29 июня 2013
  • Российская премьера: 5 декабря 2013


Качество видео: BDRip-AVC


Продолжительность: 01:32:24
Формат: MKV
Видео: x264, 1024x576, 1401 kbps
Аудио #1: русский, многоголосый закадровый [профессиональный], AC3 5.1, 448 kbps
Аудио #2: английский, оригинал, AC3 5.1, 448 kbps
Субтитры #1: русский, формат: SRT
Субтитры #2: английский, формат: SRT

Код:

Общее
 Уникальный идентификатор : 205811234291949285905829653520426143212 (0x9AD5CD4969454E2B830A8E9CD14B0DEC)
 Полное имя : Sezon.Ubijtc.2013.DUAL.BDRip.x.264.-HELLYWOOD.mkv
 Формат : Matroska
 Версия формата : Version 4 / Version 2
 Размер файла : 1,46 Гбайт
 Продолжительность : 1 ч. 30 м.
 Общий поток : 2299 Кбит/сек
 Название фильма : HELLYWOOD - rip by potroks
 Дата кодирования : UTC 2014-01-20 14:26:37
 Программа кодирования : mkvmerge v5.9.0 ('On The Loose') built on Dec 15 2012 16:39:58
 Библиотека кодирования : libebml v1.3.0 + libmatroska v1.4.0

Видео
 Идентификатор : 1
 Формат : AVC
 Формат/Информация : Advanced Video Codec
 Профиль формата : High@L4.1
 Параметр CABAC формата : Да
 Параметр ReFrames формата : 13 кадров
 Идентификатор кодека : V_MPEG4/ISO/AVC
 Продолжительность : 1 ч. 30 м.
 Битрейт : 1401 Кбит/сек
 Ширина : 1024 пикселя
 Высота : 576 пикселей
 Соотношение сторон : 16:9
 Режим частоты кадров : Постоянный
 Частота кадров : 23,976 кадра/сек
 Цветовое пространство : YUV
 Субдискретизация насыщенности : 4:2:0
 Битовая глубина : 8 бит
 Тип развёртки : Прогрессивная
 Бит/(Пиксели*Кадры) : 0.099
 Размер потока : 881 Мбайт (59%)
 Заголовок : Killing Season
 Библиотека кодирования : x264 core 130 r2273 b3065e6
 Настройки программы : cabac=1 / ref=13 / deblock=1:-2:-2 / analyse=0x3:0x133 / me=umh / subme=11 / psy=1 / psy_rd=1.02:0.00 / mixed_ref=1 / me_range=48 / chroma_me=1 / trellis=2 / 8x8dct=1 / cqm=0 / deadzone=21,11 / fast_pskip=0 / chroma_qp_offset=-2 / threads=9 / lookahead_threads=2 / sliced_threads=0 / nr=0 / decimate=1 / interlaced=0 / bluray_compat=0 / constrained_intra=0 / bframes=14 / b_pyramid=2 / b_adapt=2 / b_bias=0 / direct=3 / weightb=1 / open_gop=0 / weightp=2 / keyint=240 / keyint_min=23 / scenecut=40 / intra_refresh=0 / rc_lookahead=60 / rc=2pass / mbtree=0 / bitrate=1401 / ratetol=1.0 / qcomp=0.70 / qpmin=0 / qpmax=69 / qpstep=4 / cplxblur=20.0 / qblur=0.5 / vbv_maxrate=20000 / vbv_bufsize=25000 / nal_hrd=none / ip_ratio=1.35 / pb_ratio=1.40 / aq=2:0.80
 Язык : English
 Default : Да
 Forced : Нет

Аудио #1
 Идентификатор : 2
 Формат : AC-3
 Формат/Информация : Audio Coding 3
 Расширение режима : CM (complete main)
 Параметр Endianness формата : Big
 Идентификатор кодека : A_AC3
 Продолжительность : 1 ч. 30 м.
 Вид битрейта : Постоянный
 Битрейт : 448 Кбит/сек
 Каналы : 6 каналов
 Расположение каналов : Front: L C R, Side: L R, LFE
 Частота : 48,0 КГц
 Битовая глубина : 16 бит
 Метод сжатия : С потерями
 Размер потока : 291 Мбайт (19%)
 Заголовок : MVO | DD 5.1 @ 448 kbps
 Язык : Russian
 Default : Да
 Forced : Да

Аудио #2
 Идентификатор : 3
 Формат : AC-3
 Формат/Информация : Audio Coding 3
 Расширение режима : CM (complete main)
 Параметр Endianness формата : Big
 Идентификатор кодека : A_AC3
 Продолжительность : 1 ч. 30 м.
 Вид битрейта : Постоянный
 Битрейт : 448 Кбит/сек
 Каналы : 6 каналов
 Расположение каналов : Front: L C R, Side: L R, LFE
 Частота : 48,0 КГц
 Битовая глубина : 16 бит
 Метод сжатия : С потерями
 Размер потока : 291 Мбайт (19%)
 Заголовок : Original | DD 5.1 @ 448 kbps
 Язык : English
 Default : Нет
 Forced : Нет

Текст #1
 Идентификатор : 4
 Формат : UTF-8
 Идентификатор кодека : S_TEXT/UTF8
 Идентификатор кодека/Информация : UTF-8 Plain Text
 Язык : Russian
 Default : Нет
 Forced : Нет

Текст #2
 Идентификатор : 5
 Формат : UTF-8
 Идентификатор кодека : S_TEXT/UTF8
 Идентификатор кодека/Информация : UTF-8 Plain Text
 Язык : English
 Default : Нет
 Forced : Нет
picpicpic
Для увеличения картинки щелкните мышкой по превью

Этот торрент недоступен для скачивания без регистрации, однако доступен по публичной magnet-ссылке (источники с публичных трекеров). Перед использованием ссылки прочтите, пожалуйста Пользовательское соглашение, а также как можно дольше оставайтесь на раздаче! Для того, чтобы скачать сам торрент-файл (который видит больше источников), а также для того, чтобы поблагодарить релизера, вам необходимо зарегистрироваться. Если регистрироваться лень - вы можете также попробовать скачать релиз по нашим партнерским ссылкам ниже.

[underverse.su].t36113.torrent
Трекер: Зарегистрирован   [ 07.02.2014 20:26 ]  

Статус: проверено (by 90ytr90 at 08.02.2014 08:29)
Поблагодарили: 1 человек
Тип торрента: публичный - доступные источники с открытых трекеров: 
Размер: 1,46 GB (занимает 1/3 DVDR, для записи нужно 1 болванка DVDR/RW)
 
 
Похожие темы
Форум Тема Автор Торрент Отв. Посл. сооб.
Зарубежное кино [DVDRip, Low-Res HDRip, и т.д.] Сезон убийц / Killing Season (Марк Стивен Джонсон) [2013 г., боевик, триллер, WEB-DLRip] VO [den904] Паукан
4 | 0

0 | 11806

49

16.07.2013 04:38

Зарубежное кино [DVDRip, Low-Res HDRip, и т.д.] Сезон убийц / Killing Season (Марк Стивен Джонсон) [2013 г., боевик, триллер, WEB-DLRip] VO [den904] + Original Паукан
28 | 1

0 | 10794

20

16.07.2013 08:18

Зарубежное кино [DVDRip, Low-Res HDRip, и т.д.] Сезон убийц / Killing Season (Марк Стивен Джонсон) [2013 г., боевик, триллер, HDRip] VO (den904) 90ytr90
2 | 0

0 | 11021

37

27.07.2013 19:41

# Зарубежное кино [DVDRip, Low-Res HDRip, и т.д.] Сезон убийц / Killing Season (Марк Стивен Джонсон) [2013 г., боевик, триллер, HDRip] MVO + Original 90ytr90
0 | 0

0 | 2120

55

27.12.2013 04:55

Зарубежное кино [DVDRip, Low-Res HDRip, и т.д.] Сезон убийц / Killing Season (Марк Стивен Джонсон) [2013 г., боевик, триллер, HDRip] MVO 90ytr90
6 | 1

0 | 607

18

20.01.2014 14:42

Зарубежное кино [HDDVDRip / BDRip / WEB-DL / HDTV 1080/720р] Сезон убийц / Killing Season (Марк Стивен Джонсон) [2013 г., триллер, драма, боевик, BDRip 720p] MVO + Original + Sub (Rus, Eng) 90ytr90
1 | 0

0 | 329

14

20.01.2014 17:45


Яндекс.Метрика powered by Sphinx


В Н И М А Н И Е
Сайт не распространяет и не хранит электронные версии произведений, а лишь бесплатно и без коммерческой выгоды (не требуя взамен платы,
SMS и т.д.) предоставляет доступ к создаваемому пользователями каталогу ссылок на торрент-файлы, которые содержат только списки хеш-сумм.
Убедительная просьба с жалобами обращаться напрямую к пользователю, разместившему торрент файл.

Вверх