Loading...
Error

Квартира 143 / Emergo (Карлес Торренс) [2011 г., ужасы, HDRip] Dub + Original (Eng)

Статистика раздачи
Размер:  1,37 GB   |    Зарегистрирован:  2 года 10 месяцев   |    Скачан:  12 раз

Полного источника не было: 2 года

Сидов:  0  |  0 KB/s  ]   Личеров:  0  |  0 KB/s  ]

* - сиды/пиры с внешних источников

   
 
Автор Сообщение

IronMan Пол:Муж

07-Фев-2014 20:07

Квартира 143 / Emergo


Год выпуска: 2011
Жанр: ужасы
Страна: Испания
Режиссер: Карлес Торренс
В ролях: Франческ Гарридо, Фиона Глэскотт, Рик Гонзалез, Кай Леннокс, Джина Мантенья, Майкл О’Киф, Дамиан Роман, Ферми Рейксач

Сюжет фильма:
Команда парапсихологов намеревается исследовать серию аномальных явлений, возникших в недавно заселенной квартире. Телефонные звонки в отсутствии звонящего, таинственные тени, необычные световые аномалии, парящие в воздухе объекты, взрывы лампочек лишь некоторые события, с которыми им предстфоит столкнуться, попутно снимая все на камеру. Используя инфракрасную съемку, датчики движения, цифровые фотоаппараты, их попытки связаться с потусторонним миром становятся все более и более опасными, пока они не дойдут до точки невозврата.


  • Мировая премьера: 11 октября 2011
  • Российская премьера: 27 июня 2013

/
Качество видео: HDRip
Продолжительность: 01:20:03
Формат: AVI
Видео: XviD, 720x384, 2052 kbps
Аудио #1: русский, дублированный, AC3 2.0, 192 kbps
Аудио #2: английский, оригинал, AC3 2.0, 192 kbps

Код:

I:\Квартира 143\Kvartira.143.2011.D.HDRip.1400Mb.avi
 General
 Complete name : I:\Квартира 143\Kvartira.143.2011.D.HDRip.1400Mb.avi
 Format : AVI
 Format/Info : Audio Video Interleave
 File size : 1.37 GiB
 Duration : 1h 19mn
 Overall bit rate : 2 452 Kbps
 Writing application : VirtualDubMod 1.5.10.2 (build 2540/release)
 Writing library : VirtualDubMod build 2540/release
 Video #0
 ID : 0
 Format : MPEG-4 Visual
 Format profile : Advanced Simple@L5
 Format settings, BVOP : 2
 Format settings, QPel : No
 Format settings, GMC : No warppoints
 Format settings, Matrix : Default (MPEG)
 Codec ID : XVID
 Codec ID/Hint : XviD
 Duration : 1h 19mn
 Source duration : 51mn 7s
 Bit rate : 2 123 Kbps
 Width : 720 pixels
 Height : 384 pixels
 Display aspect ratio : 1.85:1
 Frame rate : 24.000 fps
 Color space : YUV
 Chroma subsampling : 4:2:0
 Bit depth : 8 bits
 Scan type : Progressive
 Compression mode : Lossy
 Bits/(Pixel*Frame) : 0.320
 Stream size : 776 MiB (55%)
 Writing library : XviD 1.2.1 (UTC 2008-12-04)
 Audio #1
 ID : 1
 Format : AC-3
 Format/Info : Audio Coding 3
 Mode extension : CM (complete main)
 Format settings, Endianness : Big
 Codec ID : 2000
 Duration : 1h 19mn
 Source duration : 51mn 7s
 Bit rate mode : Constant
 Bit rate : 192 Kbps
 Channel count : 2 channels
 Channel positions : Front: L R
 Sampling rate : 48.0 KHz
 Bit depth : 16 bits
 Compression mode : Lossy
 Stream size : 70.2 MiB (5%)
 Alignment : Split accross interleaves
 Interleave, duration : 42 ms (1.00 video frame)
 Interleave, preload duration : 500 ms
 Audio #2
 ID : 2
 Format : AC-3
 Format/Info : Audio Coding 3
 Mode extension : CM (complete main)
 Format settings, Endianness : Big
 Codec ID : 2000
 Duration : 1h 19mn
 Source duration : 51mn 7s
 Bit rate mode : Constant
 Bit rate : 192 Kbps
 Channel count : 2 channels
 Channel positions : Front: L R
 Sampling rate : 48.0 KHz
 Bit depth : 16 bits
 Compression mode : Lossy
 Stream size : 70.2 MiB (5%)
 Alignment : Split accross interleaves
 Interleave, duration : 42 ms (1.00 video frame)
 Interleave, preload duration : 500 ms
Семпл: http://multi-up.com/948374

picpicpic
Для увеличения картинки щелкните мышкой по превью

Этот торрент недоступен для скачивания без регистрации, однако доступен по публичной magnet-ссылке (источники с публичных трекеров). Перед использованием ссылки прочтите, пожалуйста Пользовательское соглашение, а также как можно дольше оставайтесь на раздаче! Для того, чтобы скачать сам торрент-файл (который видит больше источников), а также для того, чтобы поблагодарить релизера, вам необходимо зарегистрироваться. Если регистрироваться лень - вы можете также попробовать скачать релиз по нашим партнерским ссылкам ниже.

[underverse.su].t36112.torrent
Трекер: Зарегистрирован   [ 07.02.2014 20:07 ]  

Статус: проверено (by garry at 08.02.2014 00:59)
Поблагодарили: пока никто не поблагодарил...
Тип торрента: публичный - доступные источники с открытых трекеров: 
Размер: 1,37 GB (занимает 0,31 DVDR, для записи нужно 1 болванка DVDR/RW)
 
 
Похожие темы
Форум Тема Автор Торрент Отв. Посл. сооб.
Зарубежное кино [DVDRip, Low-Res HDRip, и т.д.] Квартира 143 / Emergo (Карлес Торренс) [2011 г., ужасы, HDRip] RG NewCinema
15 | 0

4 | 688

26

12.09.2012 06:07


Яндекс.Метрика powered by Sphinx


В Н И М А Н И Е
Сайт не распространяет и не хранит электронные версии произведений, а лишь бесплатно и без коммерческой выгоды (не требуя взамен платы,
SMS и т.д.) предоставляет доступ к создаваемому пользователями каталогу ссылок на торрент-файлы, которые содержат только списки хеш-сумм.
Убедительная просьба с жалобами обращаться напрямую к пользователю, разместившему торрент файл.

Вверх