Loading...
Error

Корабль / сезон 1 (1-26 серии из 26) (Олег Асадулин, Марк Горобец) [2013 г., фантастика, приключения, мелодрама, SatRip]

Статистика раздачи
Размер:  14,07 GB   |    Зарегистрирован:  2 года 9 месяцев   |    Скачан:  49 раз

Полного источника не было: 2 месяца 22 дня

Сидов:  0  |  0 KB/s  ]   Личеров:  0  |  0 KB/s  ]

* - сиды/пиры с внешних источников

   
 
Автор Сообщение

nemos Пол:Муж

07-Фев-2014 16:16


Год выпуска: 2013
Жанр: фантастика, приключения, мелодрама
Страна: Россия
Режиссер: Олег Асадулин, Марк Горобец
В ролях: Дмитрий Певцов, Илья Любимов, Юлия Агафонова, Агриппина Стеклова, Владимир Виноградов, Ингрид Олеринская, Матвей Зубалевич, Сергей Друзьяк, Александр Пугачёв (II), Илья Иосифов, Ярослава Базаева, Дмитрий Горевой, Ирина Антоненко, Мария Малиновская, Роман Курцын, Руслан Садковский, Вячеслав Бондарчук, Анастасия Сорокина, Фёдор Сухов, Дарья Храмцова

Качество видео: SatRip

Продолжительность: 00:48:08 серия
Формат: AVI
Видео: DivX, 720x384, 1 501 kbps
Аудио: русский, MP3 2.0, 128 kbps

Двадцать молодых курсантов на учебном парусном судне «Надежда» отправляются в плавание, готовые веселиться дни напролёт, но их беззаботный отдых длится недолго. Взрыв, произошедший в Большом адронном коллайдере, приводит к глобальной катастрофе, в результате которой все материки уходят под воду. Возможно, единственными выжившими людьми на планете оказались пассажиры «Надежды». Корабль становится их единственным домом. Правила жизни меняются. Никто не знает, что будет завтра.

Спутники цивилизации: города с людьми, магазины с продуктами и компьютеры с Интернетом — все бесследно исчезло. Вместо этого — цунами, рыбы-мутанты, вулканы и дикие птицы. Героям предстоит растягивать провизию на неопределенный срок и делить с друзьями последнее яблоко. Но со временем все эти проблемы теряют значение. У курсантов есть парусник, надежное плечо друга и шанс найти настоящую любовь. Все чувства обостряются, а страсти начинают закипать, ведь каждый день может быть последним.

Код:

E:\Фильмы (роздача)\Korabl.SATRip\Korabl.26.SATRip.avi
   General
      Complete name : E:\Фильмы (роздача)\Korabl.SATRip\Korabl.26.SATRip.avi
      Format : AVI
      Format/Info : Audio Video Interleave
      File size : 564 MiB
      Duration : 48mn 8s
      Overall bit rate : 1 638 Kbps
      Writing library : VirtualDub build 35491/release
   Video #0
      ID : 0
      Format : MPEG-4 Visual
      Format settings, BVOP : 1
      Format settings, QPel : No
      Format settings, GMC : No warppoints
      Format settings, Matrix : Default (H.263)
      Muxing mode : Packed bitstream
      Codec ID : DX50
      Codec ID/Hint : DivX 5
      Duration : 48mn 8s
      Bit rate : 1 501 Kbps
      Width : 720 pixels
      Height : 384 pixels
      Display aspect ratio : 1.85:1
      Frame rate : 25.000 fps
      Color space : YUV
      Chroma subsampling : 4:2:0
      Bit depth : 8 bits
      Scan type : Progressive
      Compression mode : Lossy
      Bits/(Pixel*Frame) : 0.217
      Stream size : 517 MiB (92%)
      Writing library : DivX 6.8.5 (UTC 2009-08-20)
   Audio #1
      ID : 1
      Format : MPEG Audio
      Format version : Version 1
      Format profile : Layer 3
      Mode : Joint stereo
      Mode extension : MS Stereo
      Codec ID : 55
      Codec ID/Hint : MP3
      Duration : 48mn 8s
      Bit rate mode : Constant
      Bit rate : 128 Kbps
      Channel(s) : 2 channels
      Sampling rate : 48.0 KHz
      Compression mode : Lossy
      Stream size : 44.1 MiB (8%)
      Alignment : Split accross interleaves
      Interleave, duration : 40 ms (1.00 video frame)
      Interleave, preload duration : 500 ms
Семпл: http://multi-up.com/948660

picpicpicpicpicpicpicpicpicpicpicpicpicpicpicpicpic
Для увеличения картинки щелкните мышкой по превью

Этот торрент недоступен для скачивания без регистрации, однако доступен по публичной magnet-ссылке (источники с публичных трекеров). Перед использованием ссылки прочтите, пожалуйста Пользовательское соглашение, а также как можно дольше оставайтесь на раздаче! Для того, чтобы скачать сам торрент-файл (который видит больше источников), а также для того, чтобы поблагодарить релизера, вам необходимо зарегистрироваться. Если регистрироваться лень - вы можете также попробовать скачать релиз по нашим партнерским ссылкам ниже.

[underverse.su].t36545.torrent
Трекер: Зарегистрирован   [ 21.02.2014 14:58 ]  

Статус: проверено (by 90ytr90 at 22.02.2014 08:20)
Поблагодарили: 9 человек
Тип торрента: публичный - доступные источники с открытых трекеров: 
Размер: 14,07 GB (занимает 3,21 DVDR, для записи нужно 4 болванки DVDR/RW)
 
 
Похожие темы
Форум Тема Автор Торрент Отв. Посл. сооб.
xUSSR сериалы Корабль / сезон 2 (1-26 серии из 26) (Марк Горобец) [2015 г., фантастика, приключения, мелодрама, SatRip] nemos
2 | 6

1 | 2646

15

24.03.2015 18:52

xUSSR сериалы [BD / Remux / BDRip / WEB-DL / HDTV 1080/720р] Корабль / сезон 2 (1-26 серии из 26) (Марк Горобец) [2015 г., фантастика, приключения, мелодрама, WEB-DL 1080p] nemos
0 | 1

1 | 2773

0

31.03.2015 14:26



Последний раз редактировалось: nemos (23.03.2015 18:09), всего редактировалось 16 раз(а)

kva33-198 Пол:Муж

22-Фев-2014 15:14

Народ, а кто знает когда следующий сезон будет?

nemos Пол:Муж

20-Мар-2015 18:22

Корабль-2 выйдет 23 марта 2015года

Яндекс.Метрика powered by Sphinx


В Н И М А Н И Е
Сайт не распространяет и не хранит электронные версии произведений, а лишь бесплатно и без коммерческой выгоды (не требуя взамен платы,
SMS и т.д.) предоставляет доступ к создаваемому пользователями каталогу ссылок на торрент-файлы, которые содержат только списки хеш-сумм.
Убедительная просьба с жалобами обращаться напрямую к пользователю, разместившему торрент файл.

Вверх