Loading...
Error

Другая жизнь Ришара Кемпа / L'autre vie de Richard Kemp (Жерминаль Альварез) [2013 г., фэнтези, триллер, криминальный, HDRip] VO (Чадов)

Статистика раздачи
Размер:  1,45 GB   |    Зарегистрирован:  2 года 10 месяцев   |    Скачан:  27 раз

Полного источника не было: 1 год 9 месяцев

Сидов:  0  |  0 KB/s  ]   Личеров:  0  |  0 KB/s  ]

* - сиды/пиры с внешних источников

   
 
Автор Сообщение

IronMan Пол:Муж

06-Фев-2014 15:25

Другая жизнь Ришара Кемпа / L'autre vie de Richard Kemp


Год выпуска: 2013
Жанр: фэнтези, триллер, криминальный
Страна: Франция
Режиссер: Жерминаль Альварез
В ролях: Жан-Юг Англад, Мелани Тьерри, Филиппе Беродот, Жан-Анри Компере, Пьер Мур, Фридерик Сорель, Адриен Кошетье, Эльза Жаллес
Сюжет фильма:
Расследуя очередное дело, капитан полиции Ришар Кемп обнаруживает, что новое убийство как две капли воды похоже на работу серийного маньяка, который орудовал в этих краях тридцать с лишним лет назад. Мистическим образом Ришар Кемп переносится в май 1989 года, ровно за день до того, как маньяк совершит первое убийство. Кемп решает изменить прошлое и поймать убийцу еще до того, как тот совершит преступление, но ему активно мешает молодой и амбициозный детектив - ни кто иной, как он сам.

  • Мировая премьера: 6 апреля 2013


Качество видео: HDRip

Продолжительность: 01:40:44
Формат: AVI
Видео: XviD, 720x304, 1608 kbps
Аудио: русский, одноголосый закадровый (Чадов), AC3 5.1, 448 kbps

Код:

General
 Complete name : C:\Users\Електростаил\Desktop\Рипы\Drugaja.Rishara.Kempa.2013.HDRip.avi
 Format : AVI
 Format/Info : Audio Video Interleave
 File size : 1.45 GiB
 Duration : 1h 40mn
 Overall bit rate : 2 065 Kbps
 Writing application : VirtualDubMod 1.5.10.2 (build 2542/release)
 Writing library : VirtualDubMod build 2542/release

 Video
 ID : 0
 Format : MPEG-4 Visual
 Format profile : Advanced Simple@L5
 Format settings, BVOP : Yes
 Format settings, QPel : No
 Format settings, GMC : No warppoints
 Format settings, Matrix : Default (MPEG)
 Codec ID : XVID
 Codec ID/Hint : XviD
 Duration : 1h 40mn
 Bit rate : 1 608 Kbps
 Width : 720 pixels
 Height : 304 pixels
 Display aspect ratio : 2.35:1
 Frame rate : 23.976 fps
 Color space : YUV
 Chroma subsampling : 4:2:0
 Bit depth : 8 bits
 Scan type : Progressive
 Compression mode : Lossy
 Bits/(Pixel*Frame) : 0.306
 Stream size : 1.13 GiB (78%)
 Writing library : XviD 1.2.1 (UTC 2008-12-04)

 Audio
 ID : 1
 Format : AC-3
 Format/Info : Audio Coding 3
 Mode extension : CM (complete main)
 Format settings, Endianness : Big
 Codec ID : 2000
 Duration : 1h 40mn
 Bit rate mode : Constant
 Bit rate : 448 Kbps
 Channel count : 6 channels
 Channel positions : Front: L C R, Side: L R, LFE
 Sampling rate : 48.0 KHz
 Bit depth : 16 bits
 Compression mode : Lossy
 Stream size : 323 MiB (22%)
 Alignment : Split accross interleaves
 Interleave, duration : 42 ms (1.00 video frame)
 Interleave, preload duration : 500 ms
picpicpicpic
Для увеличения картинки щелкните мышкой по превью

Этот торрент недоступен для скачивания без регистрации, однако доступен по публичной magnet-ссылке (источники с публичных трекеров). Перед использованием ссылки прочтите, пожалуйста Пользовательское соглашение, а также как можно дольше оставайтесь на раздаче! Для того, чтобы скачать сам торрент-файл (который видит больше источников), а также для того, чтобы поблагодарить релизера, вам необходимо зарегистрироваться. Если регистрироваться лень - вы можете также попробовать скачать релиз по нашим партнерским ссылкам ниже.

[underverse.su].t36083.torrent
Трекер: Зарегистрирован   [ 06.02.2014 17:32 ]  

Статус: проверено (by 90ytr90 at 06.02.2014 17:36)
Поблагодарили: 1 человек
Тип торрента: публичный - доступные источники с открытых трекеров: 
Размер: 1,45 GB (занимает 1/3 DVDR, для записи нужно 1 болванка DVDR/RW)
 
 
Похожие темы
Форум Тема Автор Торрент Отв. Посл. сооб.
Зарубежное кино [DVDRip, Low-Res HDRip, и т.д.] Другая жизнь Ришара Кемпа / L'autre vie de Richard Kemp (Жерминаль Альварез) [2013 г., фантастика, триллер, криминал, HDRip] VO (ХиХидок) 90ytr90
56 | 1

0 | 331

15

03.01.2014 08:40

Зарубежное кино [DVDRip, Low-Res HDRip, и т.д.] Другая жизнь Ришара Кемпа / L'autre vie de Richard Kemp (Жерминаль Альварез / Germinal Alvarez) [2013 г., фантастика, триллер, криминал, HDRip-AVC] VO (Чадов) + Original (Fre) + Sub (Rus) 90ytr90
78 | 1

0 | 234

8

05.02.2014 15:03



Последний раз редактировалось: IronMan (06.02.2014 17:31), всего редактировалось 3 раз(а)

90ytr90 

06-Фев-2014 16:09

Цитата:

Тип торрента: приватный
Должен быть публичный

Цитата:

русский, одноголосый закадровый [авторский]
Необходимо указать (автора) чей конкретно и добавить данную инфо в шапку.

Яндекс.Метрика powered by Sphinx


В Н И М А Н И Е
Сайт не распространяет и не хранит электронные версии произведений, а лишь бесплатно и без коммерческой выгоды (не требуя взамен платы,
SMS и т.д.) предоставляет доступ к создаваемому пользователями каталогу ссылок на торрент-файлы, которые содержат только списки хеш-сумм.
Убедительная просьба с жалобами обращаться напрямую к пользователю, разместившему торрент файл.

Вверх