Loading...
Error

План побега / Escape Plan (Микаэль Хофстрём) [2013 г., боевик, триллер, детектив, BDRip] Dub (Rus,Ukr) + Original + Sub (Eng) HQ Underverse

Статистика раздачи
Размер:  2,17 GB   |    Зарегистрирован:  3 года 8 месяцев   |    Скачан:  105 раз

Полного источника не было: 1 год 4 месяца

Сидов:  0  |  0 KB/s  ]   Личеров:  0  |  0 KB/s  ]

* - сиды/пиры с внешних источников

   
 
Автор Сообщение

HQ Underverse 

06-Фев-2014 13:21

План побега / Escape Plan


Год выпуска: 2013
Жанр: боевик, триллер, детектив
Страна: США
Режиссер: Микаэль Хофстрём
В ролях: Сильвестр Сталлоне, Арнольд Шварценеггер, Джеймс Кэвизел, Фифти Сент, Винни Джонс, Винсент Д’Онофрио, Эми Райан, Фаран Таир, Сэм Нил, Мэтт Джералд
Сюжет фильма:
Один из самых выдающихся мировых специалистов по системам безопасности соглашается на последнюю рисковую операцию: сбежать из суперсекретной высокотехнологичной тюрьмы, которую называют «Гробницей». Преданный Рэй Бреслин вынужден прибегнуть к помощи напарника — заключенного Эмиля Ротмайера, чтобы разработать отчаянный и практически неосуществимый план побега из самой защищенной тюрьмы в мире!

  • Мировая премьера: 18 июля 2013
  • Российская премьера: 17 октября 2013, «Централ Партнершип»

|
Качество видео: BDRip

Продолжительность: 01:55:35
Формат: avi
Видео: XviD, 720x304, 1905 kbps
Аудио #1: русский, дублированный [цифровая лицензия iTunes], AC3 5.1, 384 kbps
Аудио #2: английский, оригинал, AC3 5.1, 384 kbps
Аудио #3: украинский, дублированный [лицензия], AC3 5.1, 384 kbps (отдельным файлом: здесь)
Субтитры: внешние, SRT, английский

Код:

General
Complete name                    : Z:\windoza-share\План побега\Escape.Plan.2013.BDRip.XviD.AC3.Rus.D.Eng.O.HQ.Underverse.avi
Format                           : AVI
Format/Info                      : Audio Video Interleave
Format profile                   : OpenDML
File size                        : 2.17 GiB
Duration                         : 1h 55mn
Overall bit rate                 : 2 691 Kbps
Writing application              : VirtualDubMod 1.5.10.2 (build 2540/release)
Writing library                  : VirtualDubMod build 2540/release

Video
ID                               : 0
Format                           : MPEG-4 Visual
Format profile                   : Streaming Video@L1
Format settings, BVOP            : Yes
Format settings, QPel            : No
Format settings, GMC             : No warppoints
Format settings, Matrix          : Custom
Muxing mode                      : Packed bitstream
Codec ID                         : XVID
Codec ID/Hint                    : XviD
Duration                         : 1h 55mn
Bit rate                         : 1 905 Kbps
Width                            : 720 pixels
Height                           : 304 pixels
Display aspect ratio             : 2.35
Frame rate                       : 23.976 fps
Resolution                       : 24 bits
Colorimetry                      : 4:2:0
Scan type                        : Progressive
Bits/(Pixel*Frame)               : 0.363
Stream size                      : 1.54 GiB (71%)
Writing library                  : XviD 64

Audio #1
ID                               : 1
Format                           : AC-3
Format/Info                      : Audio Coding 3
Codec ID                         : 2000
Duration                         : 1h 55mn
Bit rate mode                    : Constant
Bit rate                         : 384 Kbps
Channel(s)                       : 6 channels
Channel positions                : Front: L C R, Surround: L R, LFE
Sampling rate                    : 48.0 KHz
Stream size                      : 317 MiB (14%)
Alignment                        : Split accross interleaves
Interleave, duration             : 42 ms (1.00 video frame)
Interleave, preload duration     : 500 ms

Audio #2
ID                               : 2
Format                           : AC-3
Format/Info                      : Audio Coding 3
Codec ID                         : 2000
Duration                         : 1h 55mn
Bit rate mode                    : Constant
Bit rate                         : 384 Kbps
Channel(s)                       : 6 channels
Channel positions                : Front: L C R, Surround: L R, LFE
Sampling rate                    : 48.0 KHz
Stream size                      : 317 MiB (14%)
Alignment                        : Split accross interleaves
Interleave, duration             : 42 ms (1.00 video frame)
Interleave, preload duration     : 500 ms

General
Complete name                    : Z:\windoza-share\План побега\Escape.Plan.2013.BDRip.XviD.AC3.Rus.D.Eng.O.HQ.Underverse.UKR.ac3
Format                           : AC-3
Format/Info                      : Audio Coding 3
File size                        : 317 MiB
Duration                         : 1h 55mn
Overall bit rate                 : 384 Kbps

Audio
Format                           : AC-3
Format/Info                      : Audio Coding 3
Duration                         : 1h 55mn
Bit rate mode                    : Constant
Bit rate                         : 384 Kbps
Channel(s)                       : 6 channels
Channel positions                : Front: L C R, Surround: L R, LFE
Sampling rate                    : 48.0 KHz
Stream size                      : 317 MiB (100%)

Релиз группы:

picpicpic
Для увеличения картинки щелкните мышкой по превью

Этот торрент недоступен для скачивания без регистрации, однако доступен по публичной magnet-ссылке (источники с публичных трекеров). Перед использованием ссылки прочтите, пожалуйста Пользовательское соглашение, а также как можно дольше оставайтесь на раздаче! Для того, чтобы скачать сам торрент-файл (который видит больше источников), а также для того, чтобы поблагодарить релизера, вам необходимо зарегистрироваться. Если регистрироваться лень - вы можете также попробовать скачать релиз по нашим партнерским ссылкам ниже.

[underverse.su].t36062.torrent
Трекер: Зарегистрирован   [ 06.02.2014 13:21 ]  

Статус: проверено (by HQ Underverse at 06.02.2014 13:22)
Поблагодарили: 3 человека
Тип торрента: публичный - доступные источники с открытых трекеров: 
Размер: 2,17 GB (занимает 1/2 DVDR, для записи нужно 1 болванка DVDR/RW)
 
 
Похожие темы
Форум Тема Автор Торрент Отв. Посл. сооб.
Зарубежное кино [DVDRip, Low-Res HDRip, и т.д.] План побега / Escape Plan (Микаэль Хофстрём) [2013 г., боевик, триллер, детектив, HDTVRip] MVO 90ytr90
1 | 0

0 | 2299

175

14.01.2014 04:16

Зарубежное кино [DVDRip, Low-Res HDRip, и т.д.] План побега / Escape Plan (Микаэль Хофстрём) [2013 г., боевик, триллер, детектив, HDRip] Dub (iTunes) 90ytr90
4 | 0

0 | 784

37

26.01.2014 10:27

Зарубежное кино [DVDRip, Low-Res HDRip, и т.д.] План побега / Escape Plan (Микаэль Хофстрём) [2013 г., боевик, триллер, детектив, HDRip] Dub [Лицензия] + Original Паукан
1 | 0

0 | 860

21

08.06.2014 08:26

Зарубежное кино [DVDRip, Low-Res HDRip, и т.д.] План побега / Escape Plan (Микаэль Хофстрём) [2013 г., боевик, триллер, детектив, BDRip-AVC] Dub + Original (Eng) + Sub (Rus, Eng) 90ytr90
1 | 0

0 | 679

6

09.06.2014 06:08

Зарубежное кино [DVDRip, Low-Res HDRip, и т.д.] План побега / Escape Plan (Микаэль Хофстрём) [2013 г., боевик, триллер, детектив, BDRip-AVC] Dub + Sub (Rus, Eng) 90ytr90
1 | 0

0 | 847

15

09.06.2014 06:23

Зарубежное кино [DVDRip, Low-Res HDRip, и т.д.] План побега / Escape Plan (Микаэль Хофстрём) [2013 г., боевик, триллер, детектив, HDRip] Dub 90ytr90
3 | 0

0 | 821

7

09.06.2014 06:47

T Зарубежное кино [DVDRip, Low-Res HDRip, и т.д.] План побега / Escape Route (У Линь) [2016 г., боевик, исторический, комедия, HDTVRip] MVO (@MUZOBOZ@) + hardsub (Chi) 90ytr90
2 | 2

0 | 471

5

02.04.2017 10:41

Зарубежное кино [HDDVDRip / BDRip / WEB-DL / HDTV 1080/720р] План побега / Escape Plan (Микаэль Хофстрём) [2013 г., боевик, триллер, детектив, BDRip 720p] Dub (iTunes) + MVO (Baibako) + Ukr + Eng + Commentary + Sub (Eng) 90ytr90
0 | 0

0 | 492

30

26.01.2014 10:45

Зарубежное кино [HDDVDRip / BDRip / WEB-DL / HDTV 1080/720р] План побега / Escape Plan (Микаэль Хофстрём) [2013 г., боевик, триллер, детектив, BDRip 1080p] Dub (iTunes) + MVO (Baibako) + Ukr + Eng + Commentary + Sub (Eng) 90ytr90
0 | 0

1 | 573

25

09.02.2014 05:04


Яндекс.Метрика powered by Sphinx


В Н И М А Н И Е
Сайт не распространяет и не хранит электронные версии произведений, а лишь бесплатно и без коммерческой выгоды (не требуя взамен платы,
SMS и т.д.) предоставляет доступ к создаваемому пользователями каталогу ссылок на торрент-файлы, которые содержат только списки хеш-сумм.
Убедительная просьба с жалобами обращаться напрямую к пользователю, разместившему торрент файл.

Вверх