Loading...
Error

Параллельная жизнь / Серии: 1-12 из 12 (Сергей Бобров ) [2013 г., детектив, приключения, SatRip]

Статистика раздачи
Размер:  6,25 GB   |    Зарегистрирован:  2 года 10 месяцев   |    Скачан:  18 раз

Полного источника не было: 3 месяца 1 день

Сидов:  0  |  0 KB/s  ]   Личеров:  0  |  0 KB/s  ]

* - сиды/пиры с внешних источников

   
 
Автор Сообщение

konopic Пол:Муж

03-Фев-2014 12:36

Параллельная жизнь


Год выпуска: 2013
Жанр: детектив, приключения
Страна: Россия, Всемирные Русские Студии
Режиссер: Сергей Бобров
В ролях: Виктория Романенко, Илья Коробко, Евгений Сидихин, Игорь Миркурбанов, Елена Котихина, Анатолий Дзиваев, Дмитрий Астрахан, Константин Желдин, Дмитрий Муляр, Дмитрий Готсдинер, Алёна Яковлева, Егор Баринов, Мария Баева, Наталья Ткаченко, Маргарита Иванова-Донская (IV), Арсений Гусев, Петар Зекавица, Игорь Недосейкин, Алёна Хмельницкая
Сюжет фильма:
Накануне свадьбы, молодой учитель из провинциального колледжа Владислав Михайлов, узнает, что он - подкидыш. Настоящие родители в начале 90-х спрятали Владика у знакомых, спасая сыну жизнь. Теперь, когда главный враг, олигарх Гаев, убит, Владик в безопасности. Больше всего он хочет узнать хоть что-то о своей семье. Вместе со своей невестой Тоней Владик начинает собирать информацию - пазл, части которого находятся у совершенно незнакомых друг с другом людей. Сами по себе эти обрывки информации ничего не значат, но собранные вместе они раскрывают тайну семьи.
Владик не догадывается, что по их следам идут и убийцы Гаева, и его партнеры, и даже друзья родителей Владика. Все они хотят получить свой “кусок пирога”. Ведь родители Владислава спрятали от своих врагов не только сына, но и большие деньги…


Качество видео: SatRip

Продолжительность: 12 х~00:44:00
Формат: AVI
Видео: 704x368, 25 fps, XviD, ~1444 kbps, 0.229 bit/pixel
Аудио: 48 kHz, MPEG Layer 3, 2 ch, 192 kbps

Код:

Общее
Полное имя : R:\Сериалы 2014\Параллельная жизнь (2014)\ПараллельнаЯ жизнь.(01.seriya).2014.XviD.SATRip.by.simka.avi
Формат : AVI
Формат/Информация : Audio Video Interleave
Размер файла : 507 Мбайт
Продолжительность : 43 м.
Общий поток : 1645 Кбит/сек
Программа кодирования : VirtualDubModRus 1.5.10.2 (build 2542/release)
Библиотека кодирования : VirtualDubMod build 2542/release
Видео
Идентификатор : 0
Формат : MPEG-4 Visual
Профиль формата : Advanced Simple@L5
Параметр BVOP формата : 1
Параметр QPel формата : Нет
Параметр GMC формата : Без точки перехода
Параметр матрицы формата : Default (H.263)
Идентификатор кодека : XVID
Идентификатор кодека/Подсказка : XviD
Продолжительность : 43 м.
Битрейт : 1444 Кбит/сек
Ширина : 704 пикселя
Высота : 368 пикселей
Соотношение сторон : 1,913
Частота кадров : 25,000 кадров/сек
Цветовое пространство : YUV
Субдискретизация насыщенности : 4:2:0
Битовая глубина : 8 бит
Тип развёртки : Прогрессивная
Метод сжатия : С потерями
Бит/(Пиксели*Кадры) : 0.223
Размер потока : 444 Мбайт (88%)
Библиотека кодирования : XviD 1.2.1 (UTC 2008-12-04)
Аудио
Идентификатор : 1
Формат : MPEG Audio
Версия формата : Version 1
Профиль формата : Layer 3
Режим : Joint stereo
Расширение режима : MS Stereo
Идентификатор кодека : 55
Идентификатор кодека/Подсказка : MP3
Продолжительность : 43 м.
Вид битрейта : Постоянный
Битрейт : 192 Кбит/сек
Каналы : 2 канала
Частота : 48,0 КГц
Метод сжатия : С потерями
Размер потока : 59,1 Мбайт (12%)
Выравнивание : Соединение по промежуткам
Продолжительность промежутка : 40 мс. (1,00 видеокадр)
Время предзагрузки промежутка : 504 мс.
Библиотека кодирования : LAME3.99r
Настройки программы : -m j -V 4 -q 2 -lowpass 18.6 -b 192
Семпл: http://multi-up.com/944884

picpicpicpicpic
Для увеличения картинки щелкните мышкой по превью

Этот торрент недоступен для скачивания без регистрации, однако доступен по публичной magnet-ссылке (источники с публичных трекеров). Перед использованием ссылки прочтите, пожалуйста Пользовательское соглашение, а также как можно дольше оставайтесь на раздаче! Для того, чтобы скачать сам торрент-файл (который видит больше источников), а также для того, чтобы поблагодарить релизера, вам необходимо зарегистрироваться. Если регистрироваться лень - вы можете также попробовать скачать релиз по нашим партнерским ссылкам ниже.

[underverse.su].t35972.torrent
Трекер: Зарегистрирован   [ 03.02.2014 12:36 ]  

Статус: проверено (by garry at 05.02.2014 08:19)
Поблагодарили: 1 человек
Тип торрента: публичный - доступные источники с открытых трекеров: 
Размер: 6,25 GB (занимает 1,43 DVDR, для записи нужно 2 болванки DVDR/RW)
 
 
Похожие темы
Форум Тема Автор Торрент Отв. Посл. сооб.
Зарубежное кино [DVDRip, Low-Res HDRip, и т.д.] Параллельные миры / Upside Down (Хуан Диего Соланас) [2012 г., фэнтези, мелодрама, DVDRip] Dub [лицензия] 90ytr90
6 | 1

2 | 1479

301

08.10.2012 04:59

Зарубежное кино [DVDRip, Low-Res HDRip, и т.д.] Параллельные миры / Upside Down (Хуан Диего Соланас) [2012 г., фэнтези, мелодрама, HDRip] Dub [лицензия] RG NewCinema
3 | 0

4 | 3620

363

07.02.2013 08:49

Зарубежное кино [DVDRip, Low-Res HDRip, и т.д.] Параллельные миры / Upside Down (Хуан Диего Соланас) [2012 г., драма, мелодрама, фэнтези, BDRip-AVC] Dub Garnett
3 | 0

5 | 1315

23

06.02.2013 12:36

Зарубежное кино [DVDRip, Low-Res HDRip, и т.д.] Параллельный мир / Клёвый мир / Cool World ( Ральф Бакши) [1992 г., Мультфильм, фэнтези, комедия, HDTVRip-AVC] AVO + MVO + DVO + Original Чертёнок
2 | 0

0 | 1672

11

01.03.2013 21:56

Наше кино [DVDRip, Low-Res HDRip, и т.д.] Параллельные миры (Ермек Аманшаев) [2013 г., мелодрама, DVDRip] 90ytr90
0 | 0

0 | 465

20

24.02.2014 15:01

Зарубежное кино [HDDVDRip / BDRip / WEB-DL / HDTV 1080/720р] Параллельные миры в 3D / Upside Down in 3D (Хуан Диего Соланас) [2012 г., фэнтези, мелодрама,, BDRip 1080p] Dub Анаглиф (Дюбуа) slaventi-69
0 | 0

0 | 833

7

28.06.2013 14:42


Яндекс.Метрика powered by Sphinx


В Н И М А Н И Е
Сайт не распространяет и не хранит электронные версии произведений, а лишь бесплатно и без коммерческой выгоды (не требуя взамен платы,
SMS и т.д.) предоставляет доступ к создаваемому пользователями каталогу ссылок на торрент-файлы, которые содержат только списки хеш-сумм.
Убедительная просьба с жалобами обращаться напрямую к пользователю, разместившему торрент файл.

Вверх