Loading...
Error

Пятая стража / Сезон 2 / Серии: 1-63 из 63 (Василий Пичул) [2013 г., детектив, мистика, SatRip]

Статистика раздачи
Размер:  30,73 GB   |    Зарегистрирован:  2 года 10 месяцев   |    Скачан:  11 раз

Полного источника не было: 3 месяца 12 дней

Сидов:  0  |  0 KB/s  ]   Личеров:  0  |  0 KB/s  ]

* - сиды/пиры с внешних источников

   
 
Автор Сообщение

konopic Пол:Муж

03-Фев-2014 11:00

Пятая стража


Год выпуска: 2013
Жанр: детектив, мистика
Страна: Россия
Режиссер: Василий Пичул
В ролях: Кирилл Козаков, Олег Семисынов, Майя Вознесенская, Ростислав Бершауэр, Ирина Виноградова, Матвей Матвеев, Егор Вадов
Сюжет фильма:
Продолжение легендарного сериала про вампиров и князе тьмы, света и мрака, а также существовании пяти стражей. 500 лет назад было предсказано князю Тьмы, Дракуле, что Темные Силы падут от руки своего. От руки вампира. От моей руки. Любимец всех зрителей, вампир Феликс в исполнении Кирилла Козакова, снова возьмется за расследование запутанных преступлений вместе со своей обновленной командой детективов, наделенных удивительной силой, недоступной простым смертным. В составе команды - детектив-медиум, детектив-невидимка, детектив-фантом и другие. Во втором сезоне телезрителей ждут еще более загадочные преступления и еще более изощренные попытки запутать следствие.
Качество видео: SatRip

Продолжительность: 63 х ~ 00:43:00
Формат: AVI
Видео: DivX, 720х400, 25 fps, 1500 Кбит/с, 0.208 bit/pixel
Аудио: MPEG Audio Layer 3, 48000Hz, 2ch, 128Kbps

Код:

Общее
Полное имя : D:\Пятая стража 2 Сезон\Pjataja.strazha.2.01.SATRip.avi
Формат : AVI
Формат/Информация : Audio Video Interleave
Размер файла : 500 Мбайт
Продолжительность : 43 м.
Общий поток : 1638 Кбит/сек
Библиотека кодирования : VirtualDub build 32842/release
Видео
Идентификатор : 0
Формат : MPEG-4 Visual
Профиль формата : Advanced Simple@L5
Параметр BVOP формата : 1
Параметр QPel формата : Нет
Параметр GMC формата : Без точки перехода
Параметр матрицы формата : Выборочная
Идентификатор кодека : DX50
Идентификатор кодека/Подсказка : DivX 5
Продолжительность : 43 м.
Битрейт : 1501 Кбит/сек
Ширина : 720 пикселя
Высота : 400 пикселей
Соотношение сторон : 16:9
Частота кадров : 25,000 кадров/сек
Цветовое пространство : YUV
Субдискретизация насыщенности : 4:2:0
Битовая глубина : 8 бит
Тип развёртки : Прогрессивная
Метод сжатия : С потерями
Бит/(Пиксели*Кадры) : 0.208
Размер потока : 458 Мбайт (92%)
Библиотека кодирования : DivX 6.8.5 (UTC 2009-08-20)
Аудио
Идентификатор : 1
Формат : MPEG Audio
Версия формата : Version 1
Профиль формата : Layer 3
Режим : Joint stereo
Расширение режима : MS Stereo
Идентификатор кодека : 55
Идентификатор кодека/Подсказка : MP3
Продолжительность : 43 м.
Вид битрейта : Постоянный
Битрейт : 128 Кбит/сек
Каналы : 2 канала
Частота : 48,0 КГц
Метод сжатия : С потерями
Размер потока : 39.1 Мбайт (8%)
Выравнивание : Соединение по промежуткам
Продолжительность промежутка : 40 мс. (1,00 видеокадра)
Время предзагрузки промежутка : 500 мс.
picpicpicpic
Для увеличения картинки щелкните мышкой по превью

Этот торрент недоступен для скачивания без регистрации, однако доступен по публичной magnet-ссылке (источники с публичных трекеров). Перед использованием ссылки прочтите, пожалуйста Пользовательское соглашение, а также как можно дольше оставайтесь на раздаче! Для того, чтобы скачать сам торрент-файл (который видит больше источников), а также для того, чтобы поблагодарить релизера, вам необходимо зарегистрироваться. Если регистрироваться лень - вы можете также попробовать скачать релиз по нашим партнерским ссылкам ниже.

[underverse.su].t35968.torrent
Трекер: Зарегистрирован   [ 03.02.2014 11:00 ]  

Статус: проверено (by Паукан at 04.02.2014 08:41)
Поблагодарили: 3 человека
Тип торрента: публичный - доступные источники с открытых трекеров: 
Размер: 30,73 GB (занимает 7,02 DVDR, для записи нужно 8 болванок DVDR/RW)
 
 
Похожие темы
Форум Тема Автор Торрент Отв. Посл. сооб.
xUSSR сериалы Пятая стража / Серии 1-62 (62) (Василий Пичул) [2013 г., детектив, мистика, SATRip] Чертёнок
0 | 2

0 | 1360

9

10.10.2013 14:02


Яндекс.Метрика powered by Sphinx


В Н И М А Н И Е
Сайт не распространяет и не хранит электронные версии произведений, а лишь бесплатно и без коммерческой выгоды (не требуя взамен платы,
SMS и т.д.) предоставляет доступ к создаваемому пользователями каталогу ссылок на торрент-файлы, которые содержат только списки хеш-сумм.
Убедительная просьба с жалобами обращаться напрямую к пользователю, разместившему торрент файл.

Вверх