Loading...
Error

Анализируй то / Analyze That (Харольд Рэмис / Harold Ramis) [2002 г., комедия, криминал, BDRip] Dub

Статистика раздачи
Размер:  1,46 GB   |    Зарегистрирован:  2 года 10 месяцев   |    Скачан:  17 раз

Полного источника не было: 8 дней

Сидов:  0  |  0 KB/s  ]   Личеров:  0  |  0 KB/s  ]

* - сиды/пиры с внешних источников

   
 
Автор Сообщение

garry Пол:Муж

02-Фев-2014 09:39

Анализируй то / Analyze That


Год выпуска: 2002
Жанр: комедия, криминал
Страна: США , Австралия
Режиссер: Харольд Рэмис / Harold Ramis
В ролях: Роберт Де Ниро, Билли Кристал, Лиза Кудроу, Джо Витерелли, Кэти Мориарти, Кайл Сабихи, Джои Диаз, Энтони ЛаПалья, Джеймс Бибери, Калли Торн
Сюжет фильма:
Сиквел неожиданно успешной комедии 1999 года с теми же актерами и персонажами, с тем же режиссером. В начале фильма Пол Витти, крестный отец мафии, сидит в тюрьме. Он не в самом лучшем психическом состоянии, ему нужна помощь психоаналитика доктора Бена Собеля.Однако ирония в том, что психоаналитик теперь нужен и самому Собелю — после смерти отца на него свалился семейный бизнес, и он пребывает в жутком стрессе. Тем временем, Витти выходит на свободу и пытается приспособиться к жизни вне мафии — поступает на телевидение, где консультирует передачи… о мафии.

  • Мировая премьера: 6 декабря 2002
  • Российская премьера: 27 марта 2003, «Каро-Премьер»

/
Качество видео: BDRip

Продолжительность: 01:35:47
Формат: AVI
Видео: XviD, 704x400, 1717 kbps
Аудио: русский, дублированный [лицензия], AC3 5.1, 448 kbps

Код:

General
 Complete name : C:\Documents and Settings\Пользователь\Рабочий стол\Торрентс.ру\Analyze.That.2002.BDRip.Dub_by_LBS.avi
 Format : AVI
 Format/Info : Audio Video Interleave
 File size : 1.46 GiB
 Duration : 1h 35mn
 Overall bit rate : 2 175 Kbps
 Director : Last Boy Scout
 Writing application : VirtualDubMod 1.5.10.3 | www.virtualdub-fr.org || (build 2550/release)
 Copyright : *другой трекер* 20.05.2013
 Comment : BDRip Dub

Video
 ID : 0
 Format : MPEG-4 Visual
 Format profile : Advanced Simple@L5
 Format settings, BVOP : 1
 Format settings, QPel : No
 Format settings, GMC : No warppoints
 Format settings, Matrix : Custom
 Codec ID : XVID
 Codec ID/Hint : XviD
 Duration : 1h 35mn
 Bit rate : 1 717 Kbps
 Width : 704 pixels
 Height : 400 pixels
 Display aspect ratio : 16:9
 Frame rate : 23.976 fps
 Color space : YUV
 Chroma subsampling : 4:2:0
 Bit depth : 8 bits
 Scan type : Progressive
 Compression mode : Lossy
 Bits/(Pixel*Frame) : 0.254
 Stream size : 1.15 GiB (79%)
 Writing library : XviD 73

Audio
 ID : 1
 Format : AC-3
 Format/Info : Audio Coding 3
 Mode extension : CM (complete main)
 Format settings, Endianness : Big
 Codec ID : 2000
 Duration : 1h 35mn
 Bit rate mode : Constant
 Bit rate : 448 Kbps
 Channel(s) : 6 channels
 Channel positions : Front: L C R, Side: L R, LFE
 Sampling rate : 48.0 KHz
 Bit depth : 16 bits
 Compression mode : Lossy
 Stream size : 307 MiB (21%)
 Alignment : Split accross interleaves
 Interleave, duration : 42 ms (1.00 video frame)
 Interleave, preload duration : 500 ms
Релиз: Last Boy Scout

picpicpic
Для увеличения картинки щелкните мышкой по превью

Этот торрент недоступен для скачивания без регистрации, однако доступен по публичной magnet-ссылке (источники с публичных трекеров). Перед использованием ссылки прочтите, пожалуйста Пользовательское соглашение, а также как можно дольше оставайтесь на раздаче! Для того, чтобы скачать сам торрент-файл (который видит больше источников), а также для того, чтобы поблагодарить релизера, вам необходимо зарегистрироваться. Если регистрироваться лень - вы можете также попробовать скачать релиз по нашим партнерским ссылкам ниже.

[underverse.su].t35944.torrent
Трекер: Зарегистрирован   [ 02.02.2014 09:39 ]  

Статус: проверено (by garry at 02.02.2014 09:39)
Поблагодарили: 2 человека
Тип торрента: публичный - доступные источники с открытых трекеров: 
Размер: 1,46 GB (занимает 1/3 DVDR, для записи нужно 1 болванка DVDR/RW)
 
 
Похожие темы
Форум Тема Автор Торрент Отв. Посл. сооб.
Зарубежное кино [DVDRip, Low-Res HDRip, и т.д.] Анализируй это / Analyze This (Харольд Рэмис / Harold Ramis) [1999 г., комедия, криминал, BDRip] Dub + Original + Sub (Rus, Eng) 90ytr90
39 | 0

0 | 531

12

22.01.2014 17:38

Зарубежное кино [DVDRip, Low-Res HDRip, и т.д.] Анализируй это / Analyze This (Харольд Рэмис / Harold Ramis) [1999 г., комедия, криминал, BDRip] Dub 90ytr90
40 | 0

0 | 238

7

22.01.2014 17:46


Яндекс.Метрика powered by Sphinx


В Н И М А Н И Е
Сайт не распространяет и не хранит электронные версии произведений, а лишь бесплатно и без коммерческой выгоды (не требуя взамен платы,
SMS и т.д.) предоставляет доступ к создаваемому пользователями каталогу ссылок на торрент-файлы, которые содержат только списки хеш-сумм.
Убедительная просьба с жалобами обращаться напрямую к пользователю, разместившему торрент файл.

Вверх