Loading...
Error

Шаман (1-16 серии из 16) (Максим Кубринский) [2011 г., Криминал, Драма, SatRip]

Статистика раздачи
Размер:  7,69 GB   |    Зарегистрирован:  2 года 10 месяцев   |    Скачан:  18 раз
Сидов:  1  |  12 KB/s  ]   Личеров:  0  |  0 KB/s  ]

* - сиды/пиры с внешних источников

   
 
Автор Сообщение

nemos Пол:Муж

29-Янв-2014 10:58


Год выпуска: 2011
Жанр: Криминал, Драма
Страна: Россия
Режиссер: Максим Кубринский
В ролях: Владимир Скворцов, Игорь Ботвин, Ян Цапник, Сергей Мардарь, Кирилл Щербина, Светлана Щедрина, Виталий Коваленко, Владимир Карпов

Качество видео: SatRip

Продолжительность: 00:45:00 серия
Формат: AVI
Видео: XviD, 704 х 400, 1395 kbps
Аудио: русский, MP3 2.0, 128 kbps

После двух лет, проведенных в СИЗО, на свободу выходит следователь СКП Иван Шаманов. У него есть сын, коллеги, азарт и работа, а также скверный характер и отличное чувство юмора. Он любвеобилен — и красотки отвечают ему взаимностью. Его главный враг — Корнеев, человек, из-за которого Шаман и попал за решетку. Шаман слишком крутой в своей профессии — и это не может оставить равнодушными тех, с кем он борется: преступники его боятся, запугивают и пытаются убрать. Но Шаман точно знает, что сила — в правде. А потому всегда на шаг опережает злодеев. Но кто победит в итоге?

Код:

E:\Фильмы (роздача)\Шаман.2011.SATRip\Шаман.16.2011.SATRip.avi
   General
      Complete name : E:\Фильмы (роздача)\Шаман.2011.SATRip\Шаман.16.2011.SATRip.avi
      Format : AVI
      Format/Info : Audio Video Interleave
      File size : 493 MiB
      Duration : 45mn 0s
      Overall bit rate : 1 533 Kbps
      Writing application : VirtualDubMod 1.5.10.2 (build 2540/release)
      Writing library : VirtualDub build 32507/release
   Video #0
      ID : 0
      Format : MPEG-4 Visual
      Format profile : Advanced Simple@L5
      Format settings, BVOP : 2
      Format settings, QPel : No
      Format settings, GMC : No warppoints
      Format settings, Matrix : Default (MPEG)
      Muxing mode : Packed bitstream
      Codec ID : XVID
      Codec ID/Hint : XviD
      Duration : 45mn 0s
      Bit rate : 1 395 Kbps
      Width : 704 pixels
      Height : 400 pixels
      Display aspect ratio : 16:9
      Frame rate : 25.000 fps
      Color space : YUV
      Chroma subsampling : 4:2:0
      Bit depth : 8 bits
      Scan type : Progressive
      Compression mode : Lossy
      Bits/(Pixel*Frame) : 0.198
      Stream size : 449 MiB (91%)
      Writing library : XviD 58
   Audio #1
      ID : 1
      Format : MPEG Audio
      Format version : Version 1
      Format profile : Layer 3
      Mode : Joint stereo
      Mode extension : MS Stereo
      Codec ID : 55
      Codec ID/Hint : MP3
      Duration : 45mn 0s
      Bit rate mode : Constant
      Bit rate : 128 Kbps
      Channel(s) : 2 channels
      Sampling rate : 48.0 KHz
      Compression mode : Lossy
      Delay relative to video : 984ms
      Stream size : 41.2 MiB (8%)
      Alignment : Split accross interleaves
      Interleave, duration : 40 ms (1.00 video frame)
      Interleave, preload duration : 504 ms
      Writing library : LAME3.90.3
Семпл: http://multi-up.com/945410

picpicpicpicpicpicpicpicpicpic
Для увеличения картинки щелкните мышкой по превью

Этот торрент недоступен для скачивания без регистрации, однако доступен по публичной magnet-ссылке (источники с публичных трекеров). Перед использованием ссылки прочтите, пожалуйста Пользовательское соглашение, а также как можно дольше оставайтесь на раздаче! Для того, чтобы скачать сам торрент-файл (который видит больше источников), а также для того, чтобы поблагодарить релизера, вам необходимо зарегистрироваться. Если регистрироваться лень - вы можете также попробовать скачать релиз по нашим партнерским ссылкам ниже.

[underverse.su].t35776.torrent
Трекер: Зарегистрирован   [ 29.01.2014 11:32 ]  

Статус: проверено (by garry at 29.01.2014 22:42)
Поблагодарили: 3 человека
Тип торрента: публичный - доступные источники с открытых трекеров: 
Размер: 7,69 GB (занимает 1,76 DVDR, для записи нужно 2 болванки DVDR/RW)
 
 

Яндекс.Метрика powered by Sphinx


В Н И М А Н И Е
Сайт не распространяет и не хранит электронные версии произведений, а лишь бесплатно и без коммерческой выгоды (не требуя взамен платы,
SMS и т.д.) предоставляет доступ к создаваемому пользователями каталогу ссылок на торрент-файлы, которые содержат только списки хеш-сумм.
Убедительная просьба с жалобами обращаться напрямую к пользователю, разместившему торрент файл.

Вверх