Loading...
Error

Шаман - 2 (1-32 серии из 32) (Максим Кубринский) [2013 г., драма, криминал, SatRip]

Статистика раздачи
Размер:  19,35 GB   |    Зарегистрирован:  2 года 9 месяцев   |    Скачан:  15 раз
Сидов:  1  |  3 KB/s  ]   Личеров:  0  |  0 KB/s  ]

* - сиды/пиры с внешних источников

   
 
Автор Сообщение

nemos Пол:Муж

29-Янв-2014 06:12


Год выпуска: 2013
Жанр: драма, криминал
Страна: Россия
Режиссер: Максим Кубринский
В ролях: Владимир Скворцов, Игорь Ботвин, Ян Цапник, Сергей Мардарь, Кирилл Щербина, Светлана Щедрина, Виталий Коваленко, Владимир Карпов, Евгений Катаев, Виталий Куклин, Анна Пескова, Анатолий Хропов, Алексей Лысенко, Константин Фисенко, Алексей Фокин, Михаил Сидаш, Тимофей Будкевич, Валерий Ошомков, Роман Павлушев, Юлия Сафонова, Алёна Старостина, Сергей Бадюк, Дарья Циберкина

Качество видео: SatRip

Продолжительность: 00:44:54 серия
Формат: AVI
Видео: XviD, 720x448, 1 795 kbps
Аудио: MP3 2.0, 128 kbps

У Шамана по-прежнему есть коллеги, азарт и работа, а также скверный характер и отличное чувство юмора. Он все так же любвеобилен – и красотки отвечают ему взаимностью. Однако после первого сезона «Шамана» в жизни Ивана Шаманова многое поменялось – он расстался с любимой женщиной, сын поступил в Университет МВД, главный враг – Корнеев, - сидит в тюрьме. Но теперь появляется адвокат Штольц, который становится костью в горле у Шамана. Ведь у Шамана всегда была и есть своя правда по отношению к преступникам. И если нужно, Шаман преступит закон в отношении к ним, но вор, убийца или насильник будут сидеть в тюрьме. А у Штольца своя правда. Он готов идти до конца в борьбе с шамановским произволом. Однажды наступает момент, когда Штольц сам не замечает, как переходит черту в борьбе с Шаманом. Но ведь и Шаману палец в рот не клади…

Код:

E:\Фильмы (роздача)\Shaman-2.2013.SATRip\Shaman-2.32.2013.SATRip.avi
   General
      Complete name : E:\Фильмы (роздача)\Shaman-2.2013.SATRip\Shaman-2.32.2013.SATRip.avi
      Format : AVI
      Format/Info : Audio Video Interleave
      File size : 621 MiB
      Duration : 44mn 54s
      Overall bit rate : 1 933 Kbps
      Writing application : VirtualDubMod 1.5.10.2 (build 2540/release)
      Writing library : VirtualDub build 32507/release
   Video #0
      ID : 0
      Format : MPEG-4 Visual
      Format profile : Advanced Simple@L5
      Format settings, BVOP : 2
      Format settings, QPel : No
      Format settings, GMC : No warppoints
      Format settings, Matrix : Default (MPEG)
      Codec ID : XVID
      Codec ID/Hint : XviD
      Duration : 44mn 54s
      Bit rate : 1 795 Kbps
      Width : 720 pixels
      Height : 448 pixels
      Display aspect ratio : 1.607
      Frame rate : 25.000 fps
      Color space : YUV
      Chroma subsampling : 4:2:0
      Bit depth : 8 bits
      Scan type : Progressive
      Compression mode : Lossy
      Bits/(Pixel*Frame) : 0.223
      Stream size : 577 MiB (93%)
      Writing library : XviD 64
   Audio #1
      ID : 1
      Format : MPEG Audio
      Format version : Version 1
      Format profile : Layer 3
      Mode : Joint stereo
      Codec ID : 55
      Codec ID/Hint : MP3
      Duration : 44mn 54s
      Bit rate mode : Constant
      Bit rate : 128 Kbps
      Channel(s) : 2 channels
      Sampling rate : 48.0 KHz
      Compression mode : Lossy
      Stream size : 41.1 MiB (7%)
      Alignment : Aligned on interleaves
      Interleave, duration : 40 ms (1.00 video frame)
      Interleave, preload duration : 504 ms
Семпл: http://multi-up.com/945347
picpicpicpicpicpic
Для увеличения картинки щелкните мышкой по превью

Этот торрент недоступен для скачивания без регистрации, однако доступен по публичной magnet-ссылке (источники с публичных трекеров). Перед использованием ссылки прочтите, пожалуйста Пользовательское соглашение, а также как можно дольше оставайтесь на раздаче! Для того, чтобы скачать сам торрент-файл (который видит больше источников), а также для того, чтобы поблагодарить релизера, вам необходимо зарегистрироваться. Если регистрироваться лень - вы можете также попробовать скачать релиз по нашим партнерским ссылкам ниже.

[underverse.su].t36527.torrent
Трекер: Зарегистрирован   [ 20.02.2014 18:38 ]  

Статус: проверено (by 90ytr90 at 22.02.2014 19:50)
Поблагодарили: 7 человек
Тип торрента: публичный - доступные источники с открытых трекеров: 
Размер: 19,35 GB (занимает 4,42 DVDR, для записи нужно 5 болванок DVDR/RW)
 
 


Последний раз редактировалось: nemos (06.11.2014 09:16), всего редактировалось 17 раз(а)

nemos Пол:Муж

29-Янв-2014 16:05

Торрент обновлён. Добавлены серии: 31-32

Яндекс.Метрика powered by Sphinx


В Н И М А Н И Е
Сайт не распространяет и не хранит электронные версии произведений, а лишь бесплатно и без коммерческой выгоды (не требуя взамен платы,
SMS и т.д.) предоставляет доступ к создаваемому пользователями каталогу ссылок на торрент-файлы, которые содержат только списки хеш-сумм.
Убедительная просьба с жалобами обращаться напрямую к пользователю, разместившему торрент файл.

Вверх