Loading...
Error

Бешеный пес и Глори / Mad Dog and Glory (Джон МакНотон / John McNaughton) [1993 г., драма, мелодрама, комедия, криминал, WEB-DLRip] MVO + DVO + AVO

Статистика раздачи
Размер:  922 MB   |    Зарегистрирован:  2 года 10 месяцев   |    Скачан:  3 раза

Полного источника не было: 2 года 9 месяцев

Сидов:  0  |  0 KB/s  ]   Личеров:  0  |  0 KB/s  ]

* - сиды/пиры с внешних источников

   
 
Автор Сообщение

garry Пол:Муж

28-Янв-2014 07:19

Бешеный пес и Глори / Mad Dog and Glory


Год выпуска: 1993
Жанр: драма, мелодрама, комедия, криминал
Страна: США
Режиссер: Джон МакНотон / John McNaughton
В ролях: Роберт Де Ниро, Ума Турман, Билл Мюррей, Дэвид Карузо, Майк Старр, Том Таулз, Кэти Бейкер, Дерек Аннансиэйшн, Даг Хара, Ивэн Лайонел
Сюжет фильма:
История робкого полицейского - фотографа Уэйна Добби, в шутку прозванного коллегами Бешеным Псом, и гангстера Фрэнка Мило. Уэйн случайно спасает жизнь Фрэнка, и тот присылает ему в качестве подарка девушку Глори...

  • Мировая премьера: 5 марта 1993

/
Качество видео: WEB-DLRip[WEB-DL 720p]

Продолжительность: 01:36:44
Формат: AVI
Видео: XviD, 656x352, 939 kbps
Аудио #1: русский, многоголосый закадровый [профессиональный], MP3 2.0, 128 kbps
Аудио #2: русский, двухголосый закадровый [профессиональный, OPT], MP3 2.0, 128 kbps - отдельно
Аудио #3: русский, одноголосый закадровый [авторский, Гаврилов], MP3 2.0, 128 kbps - отдельно

Код:

Формат                                   : AVI
 Формат/Информация                        : Audio Video Interleave
 Размер файла                             : 745 Мбайт
 Продолжительность                        : 1 ч. 36 м.
 Общий поток                              : 1076 Кбит/сек
 Программа кодирования                    : VirtualDubMod 1.5.10.3 | www.virtualdub-fr.org || (build 2550/release)
 Библиотека кодирования                   : VirtualDubMod build 2550/release

Видео
 Идентификатор                            : 0
 Формат                                   : MPEG-4 Visual
 Профиль формата                          : Advanced Simple@L5
 Параметр BVOP формата                    : 1
 Параметр QPel формата                    : Нет
 Параметр GMC формата                     : Без точки перехода
 Параметр матрицы формата                 : Выборочная
 Идентификатор кодека                     : XVID
 Идентификатор кодека/Подсказка           : XviD
 Продолжительность                        : 1 ч. 36 м.
 Битрейт                                  : 939 Кбит/сек
 Ширина                                   : 656 пикселей
 Высота                                   : 352 пикселя
 Соотношение сторон                       : 1,85:1
 Частота кадров                           : 23,976 кадра/сек
 Цветовое пространство                    : YUV
 Субдискретизация насыщенности            : 4:2:0
 Битовая глубина                          : 8 бит
 Тип развёртки                            : Прогрессивная
 Метод сжатия                             : С потерями
 Бит/(Пиксели*Кадры)                      : 0.170
 Размер потока                            : 650 Мбайт (87%)
 Библиотека кодирования                   : XviD 65

Аудио
 Идентификатор                            : 1
 Формат                                   : MPEG Audio
 Версия формата                           : Version 1
 Профиль формата                          : Layer 3
 Режим                                    : Joint stereo
 Расширение режима                        : MS Stereo
 Идентификатор кодека                     : 55
 Идентификатор кодека/Подсказка           : MP3
 Продолжительность                        : 1 ч. 36 м.
 Вид битрейта                             : Постоянный
 Битрейт                                  : 128 Кбит/сек
 Каналы                                   : 2 канала
 Частота                                  : 48,0 КГц
 Метод сжатия                             : С потерями
 Размер потока                            : 88,6 Мбайт (12%)
 Выравнивание                             : Соединение по промежуткам
 Продолжительность промежутка             : 42  мс. (1,00 видеокадр)
 Время предзагрузки промежутка            : 504  мс.
 Библиотека кодирования                   : LAME3.99r
Релиз: SILVER37RUS

picpicpic
Для увеличения картинки щелкните мышкой по превью

Этот торрент недоступен для скачивания без регистрации, однако доступен по публичной magnet-ссылке (источники с публичных трекеров). Перед использованием ссылки прочтите, пожалуйста Пользовательское соглашение, а также как можно дольше оставайтесь на раздаче! Для того, чтобы скачать сам торрент-файл (который видит больше источников), а также для того, чтобы поблагодарить релизера, вам необходимо зарегистрироваться. Если регистрироваться лень - вы можете также попробовать скачать релиз по нашим партнерским ссылкам ниже.

[underverse.su].t35724.torrent
Трекер: Зарегистрирован   [ 28.01.2014 07:19 ]  

Статус: проверено (by garry at 28.01.2014 07:19)
Поблагодарили: пока никто не поблагодарил...
Тип торрента: публичный - доступные источники с открытых трекеров: 
Размер: 922 MB (занимает 0,21 DVDR, для записи нужно 1 болванка DVDR/RW)
 
 
Похожие темы
Форум Тема Автор Торрент Отв. Посл. сооб.
Зарубежное кино [DVDRip, Low-Res HDRip, и т.д.] Бешеный Пёс и Глори / Mad Dog and Glory (Джон МакНотон / John McNaughton) [1993 г., мелодрама, криминальный, DVDRip] MVO (НТВ) 90ytr90
0 | 1

0 | 509

4

21.01.2014 18:15


Яндекс.Метрика powered by Sphinx


В Н И М А Н И Е
Сайт не распространяет и не хранит электронные версии произведений, а лишь бесплатно и без коммерческой выгоды (не требуя взамен платы,
SMS и т.д.) предоставляет доступ к создаваемому пользователями каталогу ссылок на торрент-файлы, которые содержат только списки хеш-сумм.
Убедительная просьба с жалобами обращаться напрямую к пользователю, разместившему торрент файл.

Вверх