Loading...
Error

Элитный отряд / Tropa de Elite / Elite Squad (Жозе Падилья / Jose Padilha) [2007 г., боевик, триллер, драма, криминал, BDRip] DVO HQ Underverse

Статистика раздачи
Размер:  2,17 GB   |    Зарегистрирован:  2 года 10 месяцев   |    Скачан:  27 раз
Сидов:  1  |  0 KB/s  ]   Личеров:  0  |  0 KB/s  ]

* - сиды/пиры с внешних источников

   
 
Автор Сообщение

HQ Underverse 

27-Янв-2014 09:07

Элитный отряд / Tropa de Elite / Elite Squad


Год выпуска: 2007
Жанр: боевик, триллер, драма, криминал
Страна: Бразилия , Аргентина , США , Нидерланды
Режиссер: Жозе Падилья / Jose Padilha
В ролях: Вагнер Мора, Андре Рамиро, Мария Рибейро, Фернанда Мачадо, Фернанда Де Фрейтас, Марсело Валле, Фабио Лаго, Кайо Джункейра, Мария Рибейро, Марсело Эскорель, Эмерсон Гомес
Сюжет фильма:
В 1997 году, перед визитом Папы Римского в Рио де-Жанейро, капитан Насцименто из БОПО (Батальона особых полицейских операций) получает задание устранить опасность, исходящую от наркоторговцев, действующих в опасных трущобах поблизости от резиденции Папы. Капитан Насцименто ищет человека, способного заменить его, так как жена капитана беременна, и он собирается оставить БОПО и стать наставником новобранцев.
Тем временем, два друга-идеалиста Нето и Матиас начинают службу в военной полиции, рассчитывая стать честными полицейскими и бороться с криминалом. Однако они сталкиваются в военной полиции с коррупцией, недостатком профессионализма и бюрократическим идиотизмом. После серьёзного инцидента в Моро да Бабилония они решают вступить в ряды БОПО.
Пути капитана Насцименто, Нето и Матиаса тесно переплетаются на протяжении нескольких месяцев, вначале в период жёстких тренировок, затем в операции против наркоторговцев. Насцименто верит, что Нето может заменить его, но импульсивная натура Нето затрудняет принятие решения. Позднее кандидатура интеллигентного Матиаса кажется корректным выбором, но Матиасу нужно доказать, что у него есть сердце…

  • Мировая премьера: 17 августа 2007


Качество видео: BDRip

Продолжительность: 01:54:43
Формат: avi
Видео: XviD, 720x384, 2251 kbps
Аудио: русский, двухголосый закадровый [профессиональный, R5], AC3 5.1, 448 kbps

Код:

General
Complete name                    : D:\Video\Movies\Releases\Tropa.de.Elite.2007.BDRip.XviD.AC3.Rus.DVO.HQ.Underverse.avi
Format                           : AVI
Format/Info                      : Audio Video Interleave
Format profile                   : OpenDML
File size                        : 2.17 GiB
Duration                         : 1h 54mn
Overall bit rate                 : 2 712 Kbps
Writing application              : VirtualDubMod 1.5.10.2 (build 2540/release)
Writing library                  : VirtualDubMod build 2540/release

Video
ID                               : 0
Format                           : MPEG-4 Visual
Format profile                   : Streaming Video@L1
Format settings, BVOP            : Yes
Format settings, QPel            : No
Format settings, GMC             : No warppoints
Format settings, Matrix          : Custom
Muxing mode                      : Packed bitstream
Codec ID                         : XVID
Codec ID/Hint                    : XviD
Duration                         : 1h 54mn
Bit rate                         : 2 252 Kbps
Width                            : 720 pixels
Height                           : 384 pixels
Display aspect ratio             : 1.875
Frame rate                       : 23.976 fps
Resolution                       : 24 bits
Colorimetry                      : 4:2:0
Scan type                        : Progressive
Bits/(Pixel*Frame)               : 0.340
Stream size                      : 1.80 GiB (83%)
Writing library                  : XviD 64

Audio
ID                               : 1
Format                           : AC-3
Format/Info                      : Audio Coding 3
Codec ID                         : 2000
Duration                         : 1h 54mn
Bit rate mode                    : Constant
Bit rate                         : 448 Kbps
Channel(s)                       : 6 channels
Channel positions                : Front: L C R, Surround: L R, LFE
Sampling rate                    : 48.0 KHz
Stream size                      : 368 MiB (17%)
Alignment                        : Split accross interleaves
Interleave, duration             : 42 ms (1.00 video frame)
Interleave, preload duration     : 500 ms

Релиз группы:

picpicpic
Для увеличения картинки щелкните мышкой по превью

Этот торрент недоступен для скачивания без регистрации, однако доступен по публичной magnet-ссылке (источники с публичных трекеров). Перед использованием ссылки прочтите, пожалуйста Пользовательское соглашение, а также как можно дольше оставайтесь на раздаче! Для того, чтобы скачать сам торрент-файл (который видит больше источников), а также для того, чтобы поблагодарить релизера, вам необходимо зарегистрироваться. Если регистрироваться лень - вы можете также попробовать скачать релиз по нашим партнерским ссылкам ниже.

[underverse.su].t35698.torrent
Трекер: Зарегистрирован   [ 27.01.2014 09:07 ]  

Статус: проверено (by Паукан at 27.01.2014 10:00)
Поблагодарили: 4 человека
Тип торрента: публичный - доступные источники с открытых трекеров: 
Размер: 2,17 GB (занимает 1/2 DVDR, для записи нужно 1 болванка DVDR/RW)
 
 
Похожие темы
Форум Тема Автор Торрент Отв. Посл. сооб.
Зарубежное кино [DVDRip, Low-Res HDRip, и т.д.] Элитный отряд: Враг среди нас / Tropa de Elite 2 - O Inimigo Agora E Outro (Жозе Падилья) [2010 г., боевик, триллер, драма, криминал, HDRip] STALKOID
6 | 0

2 | 630

9

21.12.2012 21:38

* Зарубежное кино [DVDRip, Low-Res HDRip, и т.д.] Элитный отряд / Tropa de Elite (Жозе Падилья) [2007 г., боевик, триллер, драма, криминал, BDRip] MVO + DVO + AVO + Original garry

0 | 337

20.12.2012 21:59

Зарубежное кино [HDDVDRip / BDRip / WEB-DL / HDTV 1080/720р] Элитный отряд / Tropa de Elite / Elite Squad (Жозе Падилья) [2007 г., боевик, триллер, драма, криминал, BDRip 720p] MVO + DVO + VO garry
1 | 0

0 | 603

7

09.10.2012 15:57


Яндекс.Метрика powered by Sphinx


В Н И М А Н И Е
Сайт не распространяет и не хранит электронные версии произведений, а лишь бесплатно и без коммерческой выгоды (не требуя взамен платы,
SMS и т.д.) предоставляет доступ к создаваемому пользователями каталогу ссылок на торрент-файлы, которые содержат только списки хеш-сумм.
Убедительная просьба с жалобами обращаться напрямую к пользователю, разместившему торрент файл.

Вверх