Loading...
Error

Мститель (1-4 серия из 4) (Димитрий Брусникин) [2013 г., Боевик, DVB]

Статистика раздачи
Размер:  2,86 GB   |    Зарегистрирован:  2 года 10 месяцев   |    Скачан:  14 раз

Полного источника не было: 2 года

Сидов:  0  |  0 KB/s  ]   Личеров:  0  |  0 KB/s  ]

* - сиды/пиры с внешних источников

   
 
Автор Сообщение

nemos Пол:Муж

26-Янв-2014 16:09


Год выпуска: 2013
Жанр: Боевик
Страна: Россия
Режиссер: Димитрий Брусникин
В ролях: Антон Пампушный, Борис Щербаков, Антон Батырев, Анастасия Панина, Игорь Лагутин

Качество видео: DVB

Продолжительность: 00:43:54 серия
Формат: MPEG-TS
Видео: AVC, 785x576, 2013 kbps
Аудио: MPEG Audio, 192 kbps

Бывший офицер ГРУ Никита Соколов с другом Валерой Осокиным невольно становятся свидетелями убийства дальнобойщика. Преступники решаются расправиться с очевидцами и бросаются за ними в погоню. Выжить в безумной гонке удается лишь Никите. Валера погибает в тот момент, когда бандиты таранят их машину, и она врезается в дерево. Попав в больницу, Соколов дает себе обещание отомстить за друга. Вот только следователь Крытов на пару с полковником Анохиным не верят его показаниям. Оказалось, что на месте аварии был найден нож с отпечатками Никиты, а рядом с телом дальнобойщика — ножны. Следователь приходит к выводу, что Соколов с другом пытались ограбить дальнобойщика, тот пытался защититься, и опытный офицер убил его. Так жертва преступления становится главным подозреваемым. Когда становится известно, что убитый дальнобойщик – отец Крытова, Анохин отстраняет его от дела…

Код:

E:\Фильмы (роздача)\Мститель.1-4 серии из 4. 2013.DVB.dimich24\Мститель.4Серия.2013.DVB.dimich24.ts
   General #1
      ID : 1 (0x1)
      Complete name : E:\Фильмы (роздача)\Мститель.1-4 серии из 4. 2013.DVB.dimich24\Мститель.4Серия.2013.DVB.dimich24.ts
      Format : MPEG-TS
      File size : 729 MiB
      Duration : 43mn 54s
      Overall bit rate : 2 321 Kbps
   Video #43
      ID : 43 (0x2B)
      Menu ID : 1 (0x1)
      Format : AVC
      Format/Info : Advanced Video Codec
      Format profile : High@L3.0
      Format settings, CABAC : Yes
      Format settings, ReFrames : 3 frames
      Codec ID : 27
      Duration : 43mn 54s
      Bit rate : 2 013 Kbps
      Width : 785 pixels
      Height : 576 pixels
      Display aspect ratio : 4:3
      Frame rate : 25.000 fps
      Standard : Component
      Color space : YUV
      Chroma subsampling : 4:2:0
      Bit depth : 8 bits
      Scan type : Interlaced
      Scan order : Top Field First
      Bits/(Pixel*Frame) : 0.194
      Stream size : 632 MiB (87%)
      Color primaries : BT.601 PAL
      Transfer characteristics : BT.470 System B, BT.470 System G
      Matrix coefficients : BT.601
   Audio #42
      ID : 42 (0x2A)
      Menu ID : 1 (0x1)
      Format : MPEG Audio
      Format version : Version 1
      Format profile : Layer 2
      Codec ID : 3
      Duration : 43mn 54s
      Bit rate mode : Constant
      Bit rate : 192 Kbps
      Channel(s) : 2 channels
      Sampling rate : 48.0 KHz
      Compression mode : Lossy
      Stream size : 60.3 MiB (8%)
      Language : English
   Text #46-100
      ID : 46 (0x2E)-100
      Menu ID : 1 (0x1)
      Format : Teletext
      Language : Russian
Семпл: http://multi-up.com/944482

picpicpicpicpicpicpicpicpicpicpicpicpicpic
Для увеличения картинки щелкните мышкой по превью

Этот торрент недоступен для скачивания без регистрации, однако доступен по публичной magnet-ссылке (источники с публичных трекеров). Перед использованием ссылки прочтите, пожалуйста Пользовательское соглашение, а также как можно дольше оставайтесь на раздаче! Для того, чтобы скачать сам торрент-файл (который видит больше источников), а также для того, чтобы поблагодарить релизера, вам необходимо зарегистрироваться. Если регистрироваться лень - вы можете также попробовать скачать релиз по нашим партнерским ссылкам ниже.

[underverse.su].t35689.torrent
Трекер: Зарегистрирован   [ 26.01.2014 16:09 ]  

Статус: проверено (by garry at 29.01.2014 04:28)
Поблагодарили: 1 человек
Тип торрента: публичный - доступные источники с открытых трекеров: 
Размер: 2,86 GB (занимает 0,65 DVDR, для записи нужно 1 болванка DVDR/RW)
 
 

Яндекс.Метрика powered by Sphinx


В Н И М А Н И Е
Сайт не распространяет и не хранит электронные версии произведений, а лишь бесплатно и без коммерческой выгоды (не требуя взамен платы,
SMS и т.д.) предоставляет доступ к создаваемому пользователями каталогу ссылок на торрент-файлы, которые содержат только списки хеш-сумм.
Убедительная просьба с жалобами обращаться напрямую к пользователю, разместившему торрент файл.

Вверх