Loading...
Error

Право голоса. 90 лет без Ленина В.И. [2014 г., телепередача, TVRip]

Статистика раздачи
Размер:  456 MB   |    Зарегистрирован:  2 года 10 месяцев   |    Скачан:  1 раз

Полного источника не было: 16 часов

Сидов:  0  |  0 KB/s  ]   Личеров:  0  |  0 KB/s  ]

* - сиды/пиры с внешних источников

   
 
Автор Сообщение

матроскин Пол:Муж

25-Янв-2014 08:22

Право голоса. 90 лет без Ленина В.И.


Год выпуска: 2014
Жанр: телепередача
Страна: Россия
Ведущий: Роман Бабаян
Выпущено: 3 канал ТВЦ
Сюжет фильма:
В январе 1924 года, 90 лет назад умер В.И.Ленин. За 20 лет демократии в нашей стране растоптана история, молодежь докатилась до того, что не знает кто такой Ленин В.И.
Качество видео: TVRip

Продолжительность: 00:49:25
Формат: avi
Видео: xvid, 640x480, 1020 kbps
Аудио: русский, оригинал, MP3 2.0, 256 kbps

Код:

General
Complete name                    : C:\Users\Security\Desktop\90 лет без Ленина. Право голоса.avi
Format                           : AVI
Format/Info                      : Audio Video Interleave
File size                        : 456 MiB
Duration                         : 49mn 25s
Overall bit rate                 : 1 289 Kbps
Writing application              : Lavf52.93.0

Video
Format                           : xvid
Codec ID                         : xvid
Duration                         : 49mn 25s
Bit rate                         : 1 021 Kbps
Width                            : 640 pixels
Height                           : 480 pixels
Display aspect ratio             : 4/3
Frame rate                       : 25.000 fps
Resolution                       : 24 bits
Bits/(Pixel*Frame)               : 0.236
Stream size                      : 361 MiB (79%)

Audio
ID                               : 1
Format                           : MPEG Audio
Format version                   : Version 1
Format profile                   : Layer 3
Codec ID                         : 55
Codec ID/Hint                    : MP3
Duration                         : 49mn 25s
Bit rate mode                    : Constant
Bit rate                         : 256 Kbps
Channel(s)                       : 2 channels
Sampling rate                    : 44.1 KHz
Resolution                       : 16 bits
Stream size                      : 90.5 MiB (20%)
Alignment                        : Aligned on interleaves
Interleave, duration             : 26 ms (0.65 video frame)
Writing library                  : LAME3.98.4

picpicpicpicpicpic
Для увеличения картинки щелкните мышкой по превью

Этот торрент недоступен для скачивания без регистрации, однако доступен по публичной magnet-ссылке (источники с публичных трекеров). Перед использованием ссылки прочтите, пожалуйста Пользовательское соглашение, а также как можно дольше оставайтесь на раздаче! Для того, чтобы скачать сам торрент-файл (который видит больше источников), а также для того, чтобы поблагодарить релизера, вам необходимо зарегистрироваться. Если регистрироваться лень - вы можете также попробовать скачать релиз по нашим партнерским ссылкам ниже.

[underverse.su].t35622.torrent
Трекер: Зарегистрирован   [ 25.01.2014 08:22 ]  

Статус: проверено (by матроскин at 25.01.2014 08:23)
Поблагодарили: 1 человек
Тип торрента: публичный - доступные источники с открытых трекеров: 
Размер: 456 MB (занимает 0,1 DVDR, для записи нужно 1 болванка DVDR/RW)
 
 
Похожие темы
Форум Тема Автор Торрент Отв. Посл. сооб.
Информационно-аналитические передачи Право голоса. Берегите полицию! [2012, телевизионная передача, TVRip] матроскин
0 | 0

1 | 675

0

30.04.2013 06:36

Информационно-аналитические передачи Право голоса. Будем Родину любить! [2012, телевизионная передача, TVRip] матроскин
0 | 0

1 | 647

0

30.04.2013 06:54

Информационно-аналитические передачи Право голоса. За что хватать взяточника? [2012, телевизионная передача, TVRip] матроскин
0 | 0

1 | 566

0

30.04.2013 07:01

Информационно-аналитические передачи Право голоса. Борьба с коррупцией! [2012, телевизионная передача, TVRip] матроскин
0 | 0

1 | 712

1

30.04.2013 07:06

Информационно-аналитические передачи Право голоса. В России нищих нет? [2012, телевизионная передача, TVRip] матроскин
0 | 0

1 | 773

0

30.04.2013 16:27

Информационно-аналитические передачи Право голоса. Смертная казнь для педофилов? [2012, телевизионная передача, TVRip] матроскин
1 | 0

1 | 808

0

30.04.2013 16:50

Информационно-аналитические передачи Право голоса. Милиция-полиция: что изменилось? [2012, телевизионная передача, TVRip] матроскин
0 | 0

2 | 769

0

14.05.2013 19:49

Информационно-аналитические передачи Право голоса. Коррупция: Перегнули палку? [телепередача, эфир от 14.05.2013г, TVRip] матроскин
0 | 0

2 | 1314

2

20.05.2013 12:17

Информационно-аналитические передачи Право голоса. За что мы любим СССР (эфир от 06.05. 2016 г.) [2016 г., документальный, TVRip] матроскин
1 | 0

2 | 1025

0

11.05.2016 11:52

матроскин Пол:Муж

25-Янв-2014 20:41





Hranitel Пол:Муж

05-Фев-2014 17:33

В.И. Ленин-собиратель земли Русской. Русская земля включает в себя все наши республики входившие в СССР. Народы ввергнутые после первой мировой войны в хаос и анархию были вновь объединены в могучий Союз. Великий Вождь твердой рукой повёл страну-корабль через смертельные рифы Гражданской войны и последующей разрухи. Ошибок и просчётов тоже было допущено немало. Основная в том, что в годы Революции к ней примазалось множество приспособленцев-врагов насаждавших террор. И всё же преобразования происходившие в СССР изменили весь мир, дали положительный прогресс. Мы живём сейчас в то время, когда настала пора собирать камни. Нужно дать правильную оценку нашей славной истории. Нужно воздать должное каждому историческому деятелю, восстановить все памятники, будь то цари или Советские руководители. И имена Ленина и Сталина по-праву являются самыми выдающимися в этом ряду. Автору-огромное спасибо! :)

Яндекс.Метрика powered by Sphinx


В Н И М А Н И Е
Сайт не распространяет и не хранит электронные версии произведений, а лишь бесплатно и без коммерческой выгоды (не требуя взамен платы,
SMS и т.д.) предоставляет доступ к создаваемому пользователями каталогу ссылок на торрент-файлы, которые содержат только списки хеш-сумм.
Убедительная просьба с жалобами обращаться напрямую к пользователю, разместившему торрент файл.

Вверх