Loading...
Error

Любовь в большом городе 3 (Марюс Вайсберг, Дэвид Додсон) [2013 г., Комедия, DVDRip]

Статистика раздачи
Размер:  1,37 GB   |    Зарегистрирован:  2 года 10 месяцев   |    Скачан:  193 раза

Полного источника не было: 4 месяца 1 день

Сидов:  0  |  0 KB/s  ]   Личеров:  0  |  0 KB/s  ]

* - сиды/пиры с внешних источников

   
 
Автор Сообщение

Су-34 Пол:Муж

24-Янв-2014 15:54

Любовь в большом городе 3


Год выпуска: 2013
Жанр: Комедия
Страна: Россия , Украина
Режиссер: Марюс Вайсберг, Дэвид Додсон
В ролях: Алексей Чадов, Владимир Зеленский, Светлана Ходченкова, Вера Брежнева, Вилле Хаапасало, Настя Задорожная, Филипп Киркоров, Шэрон Стоун, Игорь Жижикин, Екатерина Климова, Александр Петров (Артём Исаев-младший), Полина Фадеева (девушка в ТЦ Вегас)
Сюжет фильма:
В жизни каждого отца, рано или поздно наступает момент, когда жена улетает на заслуженный отдых, а он остается один на один с собственным ребенком. Казалось бы - ничего сложного! Также подумали Игорь, Артем и Сауна, даже не подозревая, какой «водопад» приключений накроет их с головой.
Измученные «прелестями» отцовства, парни встречают своего старого приятеля Святого Валентина. Снимая стресс за бутылочкой виски, ребята в шутку мечтают о том, чтобы их дети поскорее стали взрослыми.
А на утро, шокированные папаши понимают - их мечта сбылась и теперь они на собственной шкуре поймут, что значит поговорка: Большие дети - большие проблемы...
  • Мировая премьера: 1 января 2014
  • Российская премьера: 1 января 2014, «Централ Партнершип»

Качество видео: DVDRip

Продолжительность: 01:18:45
Формат: AVI
Видео: XviD, 720x400 (16:9), 2092 kbps
Аудио: русский, оригинал, AC3 5.1, 384 kbps

Код:



 Complete name : Lubov.V.Bolshom.Gorode.2013.DVDRip.avi
 Format : AVI
 Format/Info : Audio Video Interleave
 File size : 1.37 GiB
 Duration : 1h 18mn
 Overall bit rate : 2 487 Kbps
 Writing application : VirtualDubMod 1.5.10.3 | www.virtualdub-fr.org || (build 2550/release)
 Writing library : VirtualDubMod build 2550/release

Video
 ID : 0
 Format : MPEG-4 Visual
 Format profile : Advanced Simple@L5
 Format settings, BVOP : 2
 Format settings, QPel : No
 Format settings, GMC : No warppoints
 Format settings, Matrix : Default (MPEG)
 Codec ID : XVID
 Codec ID/Hint : XviD
 Duration : 1h 18mn
 Bit rate : 2 093 Kbps
 Width : 720 pixels
 Height : 400 pixels
 Display aspect ratio : 16:9
 Frame rate : 25.000 fps
 Color space : YUV
 Chroma subsampling : 4:2:0
 Bit depth : 8 bits
 Scan type : Progressive
 Compression mode : Lossy
 Bits/(Pixel*Frame) : 0.291
 Stream size : 1.15 GiB (84%)
 Writing library : XviD 1.2.1 (UTC 2008-12-04)

Audio
 ID : 1
 Format : AC-3
 Format/Info : Audio Coding 3
 Mode extension : CM (complete main)
 Codec ID : 2000
 Duration : 1h 18mn
 Bit rate mode : Constant
 Bit rate : 384 Kbps
 Channel(s) : 6 channels
 Channel positions : Front: L C R, Side: L R, LFE
 Sampling rate : 48.0 KHz
 Bit depth : 16 bits
 Compression mode : Lossy
 Stream size : 216 MiB (15%)
 Alignment : Split accross interleaves
 Interleave, duration : 40 ms (1.00 video frame)
 Interleave, preload duration : 500 ms
Семпл: http://multi-up.com/943376

picpicpic
Для увеличения картинки щелкните мышкой по превью

Этот торрент недоступен для скачивания без регистрации, однако доступен по публичной magnet-ссылке (источники с публичных трекеров). Перед использованием ссылки прочтите, пожалуйста Пользовательское соглашение, а также как можно дольше оставайтесь на раздаче! Для того, чтобы скачать сам торрент-файл (который видит больше источников), а также для того, чтобы поблагодарить релизера, вам необходимо зарегистрироваться. Если регистрироваться лень - вы можете также попробовать скачать релиз по нашим партнерским ссылкам ниже.

[underverse.su].t35603.torrent
Трекер: Зарегистрирован   [ 24.01.2014 15:56 ]  

Статус: проверено (by Паукан at 24.01.2014 19:44)
Поблагодарили: 8 человек
Тип торрента: публичный - доступные источники с открытых трекеров: 
Размер: 1,37 GB (занимает 0,31 DVDR, для записи нужно 1 болванка DVDR/RW)
 
 
Похожие темы
Форум Тема Автор Торрент Отв. Посл. сооб.
T Зарубежное кино [DVDRip, Low-Res HDRip, и т.д.] Любовь в бегах / Love on the Run (Эш Кристиан) [2016 г., комедия, WEB-DLRip] MVO makkol
140 | 5

0 | 485

7

06.10.2016 21:54

Наше кино [DVDRip, Low-Res HDRip, и т.д.] Любовь в большом городе (Марюс Вайсберг) [2009г., Романтическая комедия, DVDRip ] [М@ЛЬВИН@]
0 | 0

6 | 2596

91

07.06.2010 12:36

Наше кино [DVDRip, Low-Res HDRip, и т.д.] Любовь в большом городе 2 (Марюс Вайсберг) [2010 г., комедия, DVDRip] puzzikat
0 | 0

6 | 1902

91

02.03.2011 09:24

Наше кино [DVDRip, Low-Res HDRip, и т.д.] Любовь в большом городе 3 (Марюс Вайсберг, Дэвид Додсон) [2014 г., Комедия, DVDRip] vester78
0 | 0

0 | 678

21

25.01.2014 06:53

xUSSR сериалы Любовь в большом городе 3 (1-8 серии из 8) (Марюс Вайсберг, Дэвид Додсон) [2014 г., комедия, приключения, фантастика, HDTVRip] konopic
0 | 5

0 | 1466

21

07.03.2014 12:36

* Наше кино [DVD / HDDVD / BD / Remux] Любовь в большом городе 2 (Марюс Вайсберг) [2010 г., фэнтези, мелодрама, комедия, Blu-ray 1080p] uzi2009

0 | 556

29.04.2014 10:20

* Наше кино [DVD / HDDVD / BD / Remux] Любовь в большом городе (Марюс Вайсберг) [2009 г., Романтическая комедия, Blu-Ray 1080p] uzi2009

0 | 547

29.04.2014 10:33

Архив Любовь в большом городе (Марюс Вайсберг) [2009 г., комедия, DVDRip] elifer
0 | 0

1 | 948

31

12.11.2010 23:48

Архив Любовь в большом городе 2 (Марюс Вайсберг) [2010 г., комедия, DVD-9] andrej-ku
0 | 0

2 | 1138

4

16.06.2011 08:09

* Архив Любовь в большом городе (Марюс Вайсберг) [2009 г., комедия, BDRip 720p] Zver-Mix

1 | 897

30.08.2010 01:30



Последний раз редактировалось: Су-34 (24.01.2014 17:19), всего редактировалось 1 раз

garry Пол:Муж

24-Янв-2014 16:24

Цитата:

Аудио: русский, оригинал, AC3 2.0, 384 kbps

MediaInfo писал(а):

Channel(s) : 6 channels
исправьте, пожалуйста, количество каналов

Яндекс.Метрика powered by Sphinx


В Н И М А Н И Е
Сайт не распространяет и не хранит электронные версии произведений, а лишь бесплатно и без коммерческой выгоды (не требуя взамен платы,
SMS и т.д.) предоставляет доступ к создаваемому пользователями каталогу ссылок на торрент-файлы, которые содержат только списки хеш-сумм.
Убедительная просьба с жалобами обращаться напрямую к пользователю, разместившему торрент файл.

Вверх