Loading...
Error

Ёлки 3 (Ольга Харина, Дмитрий Киселёв, Александр Котт) [2013 г., комедия, HDRip] HQ Underverse

Статистика раздачи
Размер:  1,45 GB   |    Зарегистрирован:  2 года 10 месяцев   |    Скачан:  199 раз

Полного источника не было: 4 часа

Сидов:  0  |  0 KB/s  ]   Личеров:  0  |  0 KB/s  ]

* - сиды/пиры с внешних источников

   
 
Автор Сообщение

HQ Underverse 

24-Янв-2014 15:26

Ёлки 3


Год выпуска: 2013
Жанр: комедия
Страна: Россия
Режиссер: Ольга Харина, Дмитрий Киселёв, Александр Котт
В ролях: Иван Ургант, Сергей Светлаков, Гоша Куценко, Валентин Гафт, Татьяна Догилева, Пётр Фёдоров, Анна Чиповская, Мария Шукшина, Константин Хабенский, Антон Богданов
Сюжет фильма:
Спустя два года они снова с нами: любимые герои «Ёлок» в самых невероятных новогодних историях. Боря и Женя, чьи годовалые дети в канун праздника доведут друзей до психушки. Маленькая девочка Настя, чьи родители разлучат ее влюбленных друг в друга собак. Лыжник и сноубордист в самой экстремальной в их жизни гонке — от военкома. И профессор из Екатеринбурга Андрей, чья любвеобильность вновь не доведет его до добра, а только до проруби в минус 30. Под бой курантов этих и новых героев «Ёлок» объединит бумеранг добра. Завершая свой круг, он заслуженно вернётся к каждому, кто его однажды запустил — кому улыбками и объятиями любимых и друзей, кому — праздничным настроением и соответствующим градусу состоянием, а кому-то… телефоном в холодце!

  • Мировая премьера: 26 декабря 2013
  • Российская премьера: 26 декабря 2013, «Bazelevs Distribution»


Качество видео: HDRip

Продолжительность: 01:36:50
Формат: avi
Видео: XviD, 720x304, 1755 kbps
Аудио: русский, оригинал, AC3 5.1, 384 kbps

Код:

General
Complete name                    : Z:\windoza-share\Ёлки 3\Yolki.3.2013.HDRip.XviD.AC3.Rus.O.HQ.Underverse.avi
Format                           : AVI
Format/Info                      : Audio Video Interleave
File size                        : 1.45 GiB
Duration                         : 1h 36mn
Overall bit rate                 : 2 149 Kbps
Writing application              : VirtualDubMod 1.5.10.2 (build 2540/release)
Writing library                  : VirtualDubMod build 2540/release

Video
ID                               : 0
Format                           : MPEG-4 Visual
Format profile                   : Streaming Video@L1
Format settings, BVOP            : Yes
Format settings, QPel            : No
Format settings, GMC             : No warppoints
Format settings, Matrix          : Custom
Muxing mode                      : Packed bitstream
Codec ID                         : XVID
Codec ID/Hint                    : XviD
Duration                         : 1h 36mn
Bit rate                         : 1 755 Kbps
Width                            : 720 pixels
Height                           : 304 pixels
Display aspect ratio             : 2.35
Frame rate                       : 24.000 fps
Resolution                       : 24 bits
Colorimetry                      : 4:2:0
Scan type                        : Progressive
Bits/(Pixel*Frame)               : 0.334
Stream size                      : 1.19 GiB (82%)
Writing library                  : XviD 64

Audio
ID                               : 1
Format                           : AC-3
Format/Info                      : Audio Coding 3
Codec ID                         : 2000
Duration                         : 1h 36mn
Bit rate mode                    : Constant
Bit rate                         : 384 Kbps
Channel(s)                       : 6 channels
Channel positions                : Front: L C R, Surround: L R, LFE
Sampling rate                    : 48.0 KHz
Stream size                      : 266 MiB (18%)
Alignment                        : Split accross interleaves
Interleave, duration             : 42 ms (1.00 video frame)
Interleave, preload duration     : 500 ms

Релиз группы:

picpicpic
Для увеличения картинки щелкните мышкой по превью

Этот торрент недоступен для скачивания без регистрации, однако доступен по публичной magnet-ссылке (источники с публичных трекеров). Перед использованием ссылки прочтите, пожалуйста Пользовательское соглашение, а также как можно дольше оставайтесь на раздаче! Для того, чтобы скачать сам торрент-файл (который видит больше источников), а также для того, чтобы поблагодарить релизера, вам необходимо зарегистрироваться. Если регистрироваться лень - вы можете также попробовать скачать релиз по нашим партнерским ссылкам ниже.

[underverse.su].t35601.torrent
Трекер: Зарегистрирован   [ 24.01.2014 15:26 ]  

Статус: проверено (by HQ Underverse at 24.01.2014 15:26)
Поблагодарили: 9 человек
Тип торрента: публичный - доступные источники с открытых трекеров: 
Размер: 1,45 GB (занимает 1/3 DVDR, для записи нужно 1 болванка DVDR/RW)
 
 
Похожие темы
Форум Тема Автор Торрент Отв. Посл. сооб.
Наше кино [DVDRip, Low-Res HDRip, и т.д.] Ёлки 3 (Ольга Харина, Дмитрий Киселёв, Александр Котт) [2013 г., комедия, DVDRip] Original 90ytr90
11 | 0

0 | 1150

217

18.01.2014 08:05

Наше кино [DVDRip, Low-Res HDRip, и т.д.] Ёлки 3 (Ольга Харина, Дмитрий Киселёв, Александр Котт) [2013 г., комедия, DVDRip] Original 90ytr90
24 | 0

0 | 520

36

18.01.2014 08:10

Наше кино [DVD / HDDVD / BD / Remux] Ёлки 3 (Ольга Харина, Дмитрий Киселёв, Александр Котт) [2013, Россия, семейный, комедия, Blu-Ray disc] uzi2009
25 | 0

0 | 584

10

13.03.2014 21:46


Яндекс.Метрика powered by Sphinx


В Н И М А Н И Е
Сайт не распространяет и не хранит электронные версии произведений, а лишь бесплатно и без коммерческой выгоды (не требуя взамен платы,
SMS и т.д.) предоставляет доступ к создаваемому пользователями каталогу ссылок на торрент-файлы, которые содержат только списки хеш-сумм.
Убедительная просьба с жалобами обращаться напрямую к пользователю, разместившему торрент файл.

Вверх